[ Сегодня идет свободное скачивание без начисления Download ]


Статистика раздачи
Нет
 
   
 
 
 
 
Боксёр Века / Fighter Of The Century (1991) VHSRip - Производство: США,The Big Fights inc
Жанр: Документальный,Спорт
Режиссер: Стив Лотт
Актеры: Шугар Рэй Робинсон,Ларри Холмс,Джо Фрейзер,Кен Нортон,Джимми Эллис,Рокки Марчиано,Джордж Форман,Флойд Паттерсон,Сонни Листон
Описание:
Муха́ммед Али́ — американский боксёр-профессионал, выступавший в тяжёлой весовой категории; один из самых известных боксёров в истории мирового бокса
Продолжительность: 01:13:37
Качество видео: VHSRip [sample]
Перевод: Авторский одноголосый
Субтитры: отсутствуют
Видео: Xvid, 704x544, ~2454 kb/s
Аудио: MP3, 2 ch, 192 kb/s (Александр Кашкин)

Mediainfo:

General
Complete name : Боксёр Века-1991.avi
Format : AVI
Format/Info : Audio Video Interleave
Format profile : OpenDML
File size : 1.37 GiB
Duration : 1 h 13 min
Overall bit rate : 2 661 kb/s
Writing application : Lavf57.71.100
Video
ID : 0
Format : MPEG-4 Visual
Format profile : Advanced [email protected]
Format settings : BVOP1
Format settings, BVOP : 1
Format settings, QPel : No
Format settings, GMC : No warppoints
Format settings, Matrix : Default (MPEG)
Codec ID : XVID
Codec ID/Hint : XviD
Duration : 1 h 13 min
Bit rate : 2 454 kb/s
Width : 704 pixels
Height : 544 pixels
Display aspect ratio : 1.294
Frame rate : 25.000 FPS
Color space : YUV
Chroma subsampling : 4:2:0
Bit depth : 8 bits
Scan type : Progressive
Original scan type : Interlaced
Original scan order : Top Field First
Compression mode : Lossy
Bits/(Pixel*Frame) : 0.256
Stream size : 1.26 GiB (92%)
Writing library : XviD 67
Audio
ID : 1
Format : MPEG Audio
Format version : Version 1
Format profile : Layer 3
Format settings : Joint stereo / MS Stereo
Mode : Joint stereo
Mode extension : MS Stereo
Codec ID : 55
Codec ID/Hint : MP3
Duration : 1 h 13 min
Bit rate mode : Constant
Bit rate : 192 kb/s
Channel(s) : 2 channels
Sampling rate : 48.0 kHz
Compression mode : Lossy
Stream size : 101 MiB (7%)
Alignment : Aligned on interleaves
Interleave, duration : 24 ms (0.60 video frame)
Writing library : LAME3.99.
Скриншоты:

[Цитировать]



Показать сообщения:    

Текущее время: 19-Окт 05:33

Часовой пояс: UTC + 6


Вы не можете начинать темы
Вы не можете отвечать на сообщения
Вы не можете редактировать свои сообщения
Вы не можете удалять свои сообщения
Вы не можете голосовать в опросах
Вы не можете прикреплять файлы к сообщениям
Вы не можете скачивать файлы

!ВНИМАНИЕ!
Сайт не предоставляет электронные версии произведений, а занимается лишь коллекционированием и каталогизацией ссылок, присылаемых и публикуемых на форуме нашими читателями. Если вы являетесь правообладателем какого-либо представленного материала и не желаете, чтобы ссылка на него находилась в нашем каталоге, свяжитесь с нами, и мы незамедлительно удалим ее. Файлы для обмена на трекере предоставлены пользователями сайта, и администрация не несет ответственности за их содержание. Просьба не заливать файлы, защищенные авторскими правами, а также файлы нелегального содержания!