[ Сегодня идет свободное скачивание без начисления Download ]


Статистика раздачи
Скачал: [ 2 ]
 
   
 
 
 
 
Человек-паук / Spider-Man: The Animated SeriesСтрана: США
Производство: Marvel Enterprises, New World Entertainment, Genesis Entertainment, Tokyo Movie Shinsha Co. Ltd.
Год выпуска: 1994–1998
Сезоны: 1-5
Жанр: мультфильм, фантастика, фэнтези, боевик, триллер, драма, мелодрама, криминал, приключения, семейный
Продолжительность: 65х ~00:22:00
Режиссеры: Боб Ричардсон, Роберт Шеллхорн
Авторы сценария: Стив Дитко, Стэн Ли, Марв Вольфман
Роли озвучивали: Кристофер Дэниэл Барнс, Сара Бэллэнтайн, Эдвард Эснер, Роско Ли Браун, Родни Солсберри, Дженнифер Хейл, Линда Гэри, Гари Имхофф
Описание: Случайный укус радиоактивного паука на научной выставке даровал нескладному школьнику Питеру Паркеру невероятные паучьи способности. Когда грабитель убил его любимого дядю Бена, Питер решает использовать свои удивительные силы, чтобы защищать людей. Он навсегда запомнил слова своего дяди: «Чем больше сила, тем больше и ответственность!». Он становится Человеком-Пауком, бесстрашным героем в маске...

Перевод: Профессиональный (дублированный) + Профессиональный (многоголосый) + Авторский (одноголосый)
Субтитры: нет-Качество: DVDRemux
Формат: МКV
Видео кодек: MPEG-2
Аудио кодек: АС3
Видео: 720x576 (4:3), 25.000 fps, MPEG-2 Video ~5 505 kbps avg
Аудио №1: 48.0 kHz, AC3 Dolby Digital, 2/0 (L,R) ch, ~192 kbps | RUS / DUB / НТВ
Аудио №2: 48.0 kHz, AC3 Dolby Digital, 2/0 (L,R) ch, ~192 kbps | RUS / DUB / СТС
Аудио №3: 48.0 kHz, AC3 Dolby Digital, 2/0 (L,R) ch, ~192 kbps | RUS / Кармен-Видео
Аудио №4: 48.0 kHz, AC3 Dolby Digital, 2/0 (L,R) ch, ~192 kbps | RUS / Юрий Живов
Аудио №5: 48.0 kHz, AC3 Dolby Digital, 2/0 (L,R) ch, ~192 kbps | ENG / английский

Дополнительно по аудио

* русская: Dolby AC3 48000Hz ---|DualMono|--- 192Kbps [НТВ] (Серии 01-30)
* русская: Dolby AC3 48000Hz ---|DualMono|--- 192Kbps [Ren-TV] (Серии 31-65)
* русская: Dolby AC3 48000Hz ---|DualMono|--- 192Kbps [СТС] (Серии 29-32)
* русская: Dolby AC3 48000Hz -----|Stereo|----- 192Kbps [Кармен-Видео] (Серии 06-09, 29-44, 46)
* русская: Dolby AC3 48000Hz -----|Stereo|----- 192Kbps [Юрий Живов] (Серии 29-32)
* русская: Dolby AC3 48000Hz ---|DualMono|--- 192Kbps [Андрей Дольский] (Серии 33-36)
* русская: Dolby AC3 48000Hz ---|DualMono|--- 192Kbps [Евгений Гранкин] (Серии 07-09, 37)
* английская: Dolby AC3 48000Hz ---|Stereo|--- 192Kbps [Оригинал] (Серии 01-65) {Серия 16 - DualMono}
* фрунцузская: Dolby AC3 48000Hz -|DualMono|- 192Kbps [Дубляж] (Серия 22) {Только в Uncut версии}
Дата премьеры (мир): 19 ноября 1994

Media Info

General
Unique ID : 211448533885187081754588073170067981217 (0x9F13819D92BCADD783D522B70BFF03A1)
Complete name : Spider-Man TAS 3x02 (29) Make a Wish [DVDRemux].mkv
Format : Matroska
Format version : Version 4 / Version 2
File size : 943 MiB
Duration : 20 min 22 s
Overall bit rate mode : Variable
Overall bit rate : 6 470 kb/s
Encoded date : UTC 2017-12-30 01:38:52
Writing application : mkvmerge v8.3.0 ('Over the Horizon') 64bit
Writing library : libebml v1.3.1 + libmatroska v1.4.2
Video
ID : 1
Format : MPEG Video
Format version : Version 2
Format profile : [email protected]
Format settings, BVOP : Yes
Format settings, Matrix : Custom
Format settings, GOP : Variable
Format settings, picture st : Frame
Codec ID : V_MPEG2
Codec ID/Info : MPEG 1 or 2 Video
Duration : 20 min 21 s
Bit rate mode : Variable
Bit rate : 5 505 kb/s
Maximum bit rate : 9 000 kb/s
Width : 720 pixels
Height : 576 pixels
Display aspect ratio : 4:3
Frame rate mode : Constant
Frame rate : 25.000 FPS
Standard : PAL
Color space : YUV
Chroma subsampling : 4:2:0
Bit depth : 8 bits
Scan type : Interlaced
Scan order : Top Field First
Compression mode : Lossy
Bits/(Pixel*Frame) : 0.531
Time code of first frame : 09:59:59:14
Time code source : Group of pictures header
GOP, Open/Closed : Open
GOP, Open/Closed of first f : Closed
Stream size : 802 MiB (85%)
Title : Original
Language : English
Default : No
Forced : No
Audio #1
ID : 2
Format : AC-3
Format/Info : Audio Coding 3
Mode extension : CM (complete main)
Format settings, Endianness : Big
Codec ID : A_AC3
Duration : 20 min 22 s
Bit rate mode : Constant
Bit rate : 192 kb/s
Channel(s) : 2 channels
Channel positions : Front: L R
Sampling rate : 48.0 kHz
Frame rate : 31.250 FPS (1536 spf)
Bit depth : 16 bits
Compression mode : Lossy
Stream size : 28.0 MiB (3%)
Title : НТВ
Language : Russian
Default : Yes
Forced : No
Audio #2
ID : 3
Format : AC-3
Format/Info : Audio Coding 3
Mode extension : CM (complete main)
Format settings, Endianness : Big
Codec ID : A_AC3
Duration : 20 min 22 s
Bit rate mode : Constant
Bit rate : 192 kb/s
Channel(s) : 2 channels
Channel positions : Front: L R
Sampling rate : 48.0 kHz
Frame rate : 31.250 FPS (1536 spf)
Bit depth : 16 bits
Compression mode : Lossy
Stream size : 28.0 MiB (3%)
Title : СТС
Language : Russian
Default : No
Forced : No
Audio #3
ID : 4
Format : AC-3
Format/Info : Audio Coding 3
Mode extension : CM (complete main)
Format settings, Endianness : Big
Codec ID : A_AC3
Duration : 20 min 21 s
Bit rate mode : Constant
Bit rate : 192 kb/s
Channel(s) : 2 channels
Channel positions : Front: L R
Sampling rate : 48.0 kHz
Frame rate : 31.250 FPS (1536 spf)
Bit depth : 16 bits
Compression mode : Lossy
Stream size : 28.0 MiB (3%)
Title : Кармен-Видео
Language : Russian
Default : No
Forced : No
Audio #4
ID : 5
Format : AC-3
Format/Info : Audio Coding 3
Mode extension : CM (complete main)
Format settings, Endianness : Big
Codec ID : A_AC3
Duration : 20 min 22 s
Bit rate mode : Constant
Bit rate : 192 kb/s
Channel(s) : 2 channels
Channel positions : Front: L R
Sampling rate : 48.0 kHz
Frame rate : 31.250 FPS (1536 spf)
Bit depth : 16 bits
Compression mode : Lossy
Stream size : 28.0 MiB (3%)
Title : Юрий Живов
Language : Russian
Default : No
Forced : No
Audio #5
ID : 6
Format : AC-3
Format/Info : Audio Coding 3
Mode extension : CM (complete main)
Format settings, Endianness : Big
Codec ID : A_AC3
Duration : 20 min 22 s
Bit rate mode : Constant
Bit rate : 192 kb/s
Channel(s) : 2 channels
Channel positions : Front: L R
Sampling rate : 48.0 kHz
Frame rate : 31.250 FPS (1536 spf)
Bit depth : 16 bits
Compression mode : Lossy
Stream size : 28.0 MiB (3%)
Title : Original
Language : English
Default : No
Forced : No

Скриншоты

[Цитировать]



Показать сообщения:    

Текущее время: 18-Окт 10:08

Часовой пояс: UTC + 6


Вы не можете начинать темы
Вы не можете отвечать на сообщения
Вы не можете редактировать свои сообщения
Вы не можете удалять свои сообщения
Вы не можете голосовать в опросах
Вы не можете прикреплять файлы к сообщениям
Вы не можете скачивать файлы

!ВНИМАНИЕ!
Сайт не предоставляет электронные версии произведений, а занимается лишь коллекционированием и каталогизацией ссылок, присылаемых и публикуемых на форуме нашими читателями. Если вы являетесь правообладателем какого-либо представленного материала и не желаете, чтобы ссылка на него находилась в нашем каталоге, свяжитесь с нами, и мы незамедлительно удалим ее. Файлы для обмена на трекере предоставлены пользователями сайта, и администрация не несет ответственности за их содержание. Просьба не заливать файлы, защищенные авторскими правами, а также файлы нелегального содержания!