[ Сегодня идет свободное скачивание без начисления Download ]


Статистика раздачи
Скачал: [ 3 ]
 
   
 
 
 
 
Углерод
Carbone
- Информация
Производство: Франция, Бельгия / Canal+, EuropaCorp
Жанр: Триллер, криминал
Режиссер: Оливье Маршаль
Актеры: Бенуа Мажимель, Идир Чендер, Лаура Смет, Микаэль Юн, Дани, Патрик Каталифо, Жерар Депардьё, Мусса Мааскри, Фридерик Эпо
Описание:
Боясь потерять свой семейный бизнес, обычный парень Антуан Рока придумывает аферу, которая в будущем станет мошенничеством века. Ввязавшись в криминал, он сталкивается с предательством друзей, убийствами и подтасовкой.


Дата мировой премьеры: 13 октября 2017
Продолжительность: 01:43:21
Перевод: Многоголосый закадровый, любительский (Синема УС)
Файл
Качество видео: BDRip Сэмпл
Видео: AVC, 1280x536, 5 868 Kbps
Аудио: AC-3, 48.0 KHz, 2 ch, 448 Kbps
Субтитры: Отсутствуют
Присутствуют вставки текстовой рекламы!

MediaInfo:

Общее
Полное имя : E:\NNM\Углерод\Carbone 2017 BDRip 720p-LQ.mkv
Формат : Matroska
Версия формата : Version 2
Размер файла : 4,65 Гбайт
Продолжительность : 1 ч. 43 м.
Режим общего битрейта : Переменный
Общий поток : 6444 Кбит/сек
Программа кодирования : libmatroska 1.4.1
Видео
Идентификатор : 1
Формат : AVC
Формат/Информация : Advanced Video Codec
Профиль формата : [email protected]
Настройки формата : CABAC / 4 Ref Frames
Параметр CABAC формата : Да
Параметр RefFrames формата : 4 кадра
Идентификатор кодека : V_MPEG4/ISO/AVC
Продолжительность : 1 ч. 43 м.
Вид битрейта : Переменный
Битрейт : 5868 Кбит/сек
Максимальный битрейт : 6600 Кбит/сек
Ширина : 1280 пикселей
Высота : 536 пикселей
Соотношение сторон : 2,40:1
Режим частоты кадров : Постоянный
Частота кадров : 23,976 (24000/1001) кадра/сек
Стандарт вещания : Component
Цветовое пространство : YUV
Субдискретизация насыщенности : 4:2:0
Битовая глубина : 8 бит
Тип развёртки : Прогрессивная
Бит/(Пиксели*Кадры) : 0.357
Размер потока : 4,24 Гбайт (91%)
Default : Нет
Forced : Нет
Аудио
Идентификатор : 2
Формат : AC-3
Формат/Информация : Audio Coding 3
Идентификатор кодека : A_AC3
Продолжительность : 1 ч. 43 м.
Вид битрейта : Постоянный
Битрейт : 448 Кбит/сек
Каналы : 2 канала
Расположение каналов : Front: L R
Частота : 48,0 КГц
Частота кадров : 31,250 кадров/сек (1536 SPF)
Битовая глубина : 16 бит
Метод сжатия : С потерями
Размер потока : 331 Мбайт (7%)
ServiceKind/String : Complete Main
Default : Нет
Forced : Нет

Скриншоты

Скриншоты:

[Цитировать]



Показать сообщения:    

Текущее время: 16-Окт 19:31

Часовой пояс: UTC + 6


Вы не можете начинать темы
Вы не можете отвечать на сообщения
Вы не можете редактировать свои сообщения
Вы не можете удалять свои сообщения
Вы не можете голосовать в опросах
Вы не можете прикреплять файлы к сообщениям
Вы не можете скачивать файлы

!ВНИМАНИЕ!
Сайт не предоставляет электронные версии произведений, а занимается лишь коллекционированием и каталогизацией ссылок, присылаемых и публикуемых на форуме нашими читателями. Если вы являетесь правообладателем какого-либо представленного материала и не желаете, чтобы ссылка на него находилась в нашем каталоге, свяжитесь с нами, и мы незамедлительно удалим ее. Файлы для обмена на трекере предоставлены пользователями сайта, и администрация не несет ответственности за их содержание. Просьба не заливать файлы, защищенные авторскими правами, а также файлы нелегального содержания!