[ Сегодня идет свободное скачивание без начисления Download ]


Статистика раздачи
Скачал: [ 1 ]
 
   
 
 
 
 
Тотем / Totem Информация о фильме
Год выхода: 2017
Наименование: Тотем
Оригинальное наименование: Totem
Произведено: США
Жанр: ужасы, триллер, детектив
Режиссер постановщик: Марсель Сармиенто
В главных ролях: Кэррис Дорси, Ана О Райли, Джеймс Таппер, Лия МакХью, Браден Лемастерс, Лоуренс Прессман, Жослин Андерсон, Аджа Баир, Эллисон Каэтано, Ивэн Диксон
О фильме: Вот уже на протяжении пяти лет 17-летняя Келли заботится о семье - младшей сестренке Эбби и отце, их мама умерла при загадочных обстоятельствах. И с тех пор в доме поселилась странная сущность, с которой разговаривает Эбби в полной уверенности, что это мама. Однажды отец все-таки приводит в семью женщину, на которой планирует жениться, и с этого момента активность потустороннего усиливается.

Файл
Качество: WEB-DLRip 1080p
Видео данные: MKV, 1920x1080 (16:9), 23.976 fps, 9426 Кбит/с
Аудио данные: AC3, 2 ch, 384 Кбит/с
Перевод: Любительский многоголосый (GreenРай Studio)
Продолжительность: 01:30:49
Внимание, имеется видео и аудио реклама от спонсора показа

Медиаинфо

General
Unique ID : 250857811317274287690837779227745832765 (0xBCB97501E14EC898B47D95C6F0E5CF3D)
Complete name : D:ГРИНРАЙTotem.2017.P.WEB-DL.1080p.mkv
Format : Matroska
Format version : Version 4 / Version 2
File size : 6.35 GiB
Duration : 1 h 30 min
Overall bit rate mode : Constant
Overall bit rate : 10.0 Mb/s
Encoded date : UTC 2018-03-14 08:27:00
Writing application : mkvmerge v6.5.0 ('Isn't she lovely') built on Oct 20 2013 12:50:05
Writing library : libebml v1.3.0 + libmatroska v1.4.1
Video
ID : 1
Format : AVC
Format/Info : Advanced Video Codec
Format profile : [email protected]
Format settings : CABAC / 3 Ref Frames
Format settings, CABAC : Yes
Format settings, RefFrames : 3 frames
Codec ID : V_MPEG4/ISO/AVC
Duration : 1 h 30 min
Bit rate mode : Constant
Bit rate : 9 426 kb/s
Nominal bit rate : 10 000 kb/s
Width : 1 920 pixels
Height : 1 080 pixels
Display aspect ratio : 16:9
Frame rate mode : Constant
Frame rate : 23.976 (24000/1001) FPS
Standard : NTSC
Color space : YUV
Chroma subsampling : 4:2:0
Bit depth : 8 bits
Scan type : Progressive
Bits/(Pixel*Frame) : 0.190
Stream size : 5.98 GiB (94%)
Language : English
Default : Yes
Forced : No
Color range : Limited
Audio
ID : 2
Format : AC-3
Format/Info : Audio Coding 3
Codec ID : A_AC3
Duration : 1 h 30 min
Bit rate mode : Constant
Bit rate : 384 kb/s
Channel(s) : 2 channels
Channel positions : Front: L R
Sampling rate : 48.0 kHz
Frame rate : 31.250 FPS (1536 SPF)
Bit depth : 16 bits
Compression mode : Lossy
Stream size : 249 MiB (4%)
Service kind : Complete Main
Default : Yes
Forced : No

Скриншоты

[Цитировать]



Показать сообщения:    

Текущее время: 20-Окт 11:31

Часовой пояс: UTC + 6


Вы не можете начинать темы
Вы не можете отвечать на сообщения
Вы не можете редактировать свои сообщения
Вы не можете удалять свои сообщения
Вы не можете голосовать в опросах
Вы не можете прикреплять файлы к сообщениям
Вы не можете скачивать файлы

!ВНИМАНИЕ!
Сайт не предоставляет электронные версии произведений, а занимается лишь коллекционированием и каталогизацией ссылок, присылаемых и публикуемых на форуме нашими читателями. Если вы являетесь правообладателем какого-либо представленного материала и не желаете, чтобы ссылка на него находилась в нашем каталоге, свяжитесь с нами, и мы незамедлительно удалим ее. Файлы для обмена на трекере предоставлены пользователями сайта, и администрация не несет ответственности за их содержание. Просьба не заливать файлы, защищенные авторскими правами, а также файлы нелегального содержания!