[ Сегодня идет свободное скачивание без начисления Download ]


Статистика раздачи
Скачал: [ 3 ]
 
   
 
 
 
 
Битва полов / Battle of the Sexes (2017) BDRip 720p Информация о фильме
Название: Битва полов
Оригинальное название: Battle of the Sexes
Год выхода: 2017
Жанр: Драма, комедия, биография, спорт
Режиссер: Джонатан Дэйтон, Валери Фэрис
В ролях: Эмма Стоун, Стив Карелл, Андреа Райзборо, Натали Моралес, Сара Силверман, Билл Пуллман, Алан Камминг, Элизабет Шу, Эрик Кристиан Олсен, Фред Армисен
О фильме:
История соперничества между 55-летним чемпионом Уимблдона Бобби Риггсом и 29-летней теннисисткой Билли Джин Кинг. Легендарный матч, прошедший в 1973 году, собрал возле экранов более 50 миллионов американцев и доказал, что профессиональные спортсменки способны на равных состязаться с коллегами-мужчинами.

Страна: Великобритания, США
Студия: Fox Searchlight Pictures
Продолжительность: 02:01:39
Перевод: Профессиональный (многоголосый, закадровый) | Лицензия
Файл
Формат: MKV
Качество: BDRip 720p | Blu-ray 1080p |
Видео: AVC, 1280x536 (2.40:1), 23.976 fps, 4 248 Kbps (0.258 bit/pixel)
Аудио #1: AC-3, 48.0 KHz, 6 ch, 448 Kbps, CBR (Russian)
Аудио #2: AC-3, 48.0 KHz, 6 ch, 448 Kbps, CBR (English)
Субтитры: Russian, English
Скриншоты:

x264 log:

x264 [info]: frame I:1134 Avg QP:14.22 size:114615 PSNR Mean Y:48.54 U:50.54 V:51.33 Avg:49.18 Global:48.14
x264 [info]: frame P:36118 Avg QP:17.20 size: 42661 PSNR Mean Y:46.42 U:48.64 V:49.81 Avg:47.15 Global:46.09
x264 [info]: frame B:137757 Avg QP:18.66 size: 15974 PSNR Mean Y:45.88 U:48.07 V:49.63 Avg:46.62 Global:45.23

MediaInfo:

Полное имя : D:КИНО НА ДИСКБитва полов.2017 (Э.Стоун, С.Карелл).k.e.n & MegaPeer.mkv
Формат : Matroska
Версия формата : Version 2
Размер файла : 4,37 Гбайт
Продолжительность : 2 ч. 1 м.
Общий поток : 5142 Кбит/сек
Название фильма : Battle of the Sexes 2017
Дата кодирования : UTC 2018-03-26 04:23:06
Программа кодирования : mkvmerge v5.3.0 ('I could have danced') built on Feb 9 2012 10:38:07
Библиотека кодирования : libebml v1.2.3 + libmatroska v1.3.0
Attachments : poster (12).jpg
Видео
Идентификатор : 1
Формат : AVC
Формат/Информация : Advanced Video Codec
Профиль формата : [email protected]
Параметр CABAC формата : Да
Параметр ReFrames формата : 12 кадров
Идентификатор кодека : V_MPEG4/ISO/AVC
Продолжительность : 2 ч. 1 м.
Битрейт : 4248 Кбит/сек
Ширина : 1280 пикселей
Высота : 536 пикселей
Соотношение сторон : 2,40:1
Режим частоты кадров : Постоянный
Частота кадров : 23,976 (24000/1001) кадра/сек
Цветовое пространство : YUV
Субдискретизация насыщенности : 4:2:0
Битовая глубина : 8 бит
Тип развёртки : Прогрессивная
Бит/(Пиксели*Кадры) : 0.258
Размер потока : 3,52 Гбайт (81%)
Библиотека кодирования : x264 core 146 r2538 121396c
Настройки программы : cabac=1 / ref=12 / deblock=1:-3:-3 / analyse=0x3:0x133 / me=umh / subme=11 / psy=1 / psy_rd=1.00:0.10 / mixed_ref=1 / me_range=32 / chroma_me=1 / trellis=2 / 8x8dct=1 / cqm=0 / deadzone=21,11 / fast_pskip=0 / chroma_qp_offset=-3 / threads=12 / lookahead_threads=3 / sliced_threads=0 / nr=0 / decimate=0 / interlaced=0 / bluray_compat=0 / constrained_intra=0 / bframes=12 / b_pyramid=2 / b_adapt=2 / b_bias=0 / direct=3 / weightb=1 / open_gop=0 / weightp=2 / keyint=240 / keyint_min=24 / scenecut=40 / intra_refresh=0 / rc=2pass / mbtree=0 / bitrate=4248 / ratetol=1.0 / qcomp=0.60 / qpmin=0 / qpmax=69 / qpstep=4 / cplxblur=20.0 / qblur=0.5 / ip_ratio=1.40 / pb_ratio=1.30 / aq=1:0.90
Язык : English
Default : Да
Forced : Нет
Аудио #1
Идентификатор : 2
Формат : AC-3
Формат/Информация : Audio Coding 3
Расширение режима : CM (complete main)
Параметр Endianness формата : Big
Идентификатор кодека : A_AC3
Продолжительность : 2 ч. 1 м.
Вид битрейта : Постоянный
Битрейт : 448 Кбит/сек
Каналы : 6 каналов
Расположение каналов : Front: L C R, Side: L R, LFE
Частота : 48,0 КГц
Частота кадров : 31,250 кадров/сек (1536 spf)
Битовая глубина : 16 бит
Метод сжатия : С потерями
Размер потока : 390 Мбайт (9%)
Заголовок : Профессиональный многоголосый (Лицензия)
Язык : Russian
Default : Да
Forced : Да
Аудио #2
Идентификатор : 3
Формат : AC-3
Формат/Информация : Audio Coding 3
Расширение режима : CM (complete main)
Параметр Endianness формата : Big
Идентификатор кодека : A_AC3
Продолжительность : 2 ч. 1 м.
Вид битрейта : Постоянный
Битрейт : 448 Кбит/сек
Каналы : 6 каналов
Расположение каналов : Front: L C R, Side: L R, LFE
Частота : 48,0 КГц
Частота кадров : 31,250 кадров/сек (1536 spf)
Битовая глубина : 16 бит
Метод сжатия : С потерями
Размер потока : 390 Мбайт (9%)
Заголовок : Оригинал
Язык : English
Default : Нет
Forced : Нет
Текст #1
Идентификатор : 4
Формат : UTF-8
Идентификатор кодека : S_TEXT/UTF8
Идентификатор кодека/Информация : UTF-8 Plain Text
Заголовок : Full
Язык : Russian
Default : Нет
Forced : Нет
Текст #2
Идентификатор : 5
Формат : UTF-8
Идентификатор кодека : S_TEXT/UTF8
Идентификатор кодека/Информация : UTF-8 Plain Text
Заголовок : Full
Язык : English
Default : Нет
Forced : Нет
Текст #3
Идентификатор : 6
Формат : UTF-8
Идентификатор кодека : S_TEXT/UTF8
Идентификатор кодека/Информация : UTF-8 Plain Text
Заголовок : SDH
Язык : English
Default : Нет
Forced : Нет
Текст #4
Идентификатор : 7
Формат : UTF-8
Идентификатор кодека : S_TEXT/UTF8
Идентификатор кодека/Информация : UTF-8 Plain Text
Заголовок : SDH Colored
Язык : English
Default : Нет
Forced : Нет
Меню
00:00:00.000 : en:00:00:00.000
00:03:34.423 : en:00:03:34.423
00:07:51.304 : en:00:07:51.304
00:10:57.532 : en:00:10:57.532
00:15:13.621 : en:00:15:13.621
00:19:09.523 : en:00:19:09.523
00:22:54.915 : en:00:22:54.915
00:27:57.676 : en:00:27:57.676
00:34:32.946 : en:00:34:32.946
00:38:57.835 : en:00:38:57.835
00:44:57.278 : en:00:44:57.278
00:49:17.079 : en:00:49:17.079
00:54:23.927 : en:00:54:23.927
00:57:54.763 : en:00:57:54.763
01:06:28.276 : en:01:06:28.276
01:15:03.499 : en:01:15:03.499
01:19:37.940 : en:01:19:37.940
01:23:21.914 : en:01:23:21.914
01:30:49.819 : en:01:30:49.819
01:35:11.623 : en:01:35:11.623
01:38:59.142 : en:01:38:59.142
01:43:04.053 : en:01:43:04.053
01:48:47.062 : en:01:48:47.062
01:55:22.749 : en:01:55:22.749

[Цитировать]



Показать сообщения:    

Текущее время: 16-Окт 19:27

Часовой пояс: UTC + 6


Вы не можете начинать темы
Вы не можете отвечать на сообщения
Вы не можете редактировать свои сообщения
Вы не можете удалять свои сообщения
Вы не можете голосовать в опросах
Вы не можете прикреплять файлы к сообщениям
Вы не можете скачивать файлы

!ВНИМАНИЕ!
Сайт не предоставляет электронные версии произведений, а занимается лишь коллекционированием и каталогизацией ссылок, присылаемых и публикуемых на форуме нашими читателями. Если вы являетесь правообладателем какого-либо представленного материала и не желаете, чтобы ссылка на него находилась в нашем каталоге, свяжитесь с нами, и мы незамедлительно удалим ее. Файлы для обмена на трекере предоставлены пользователями сайта, и администрация не несет ответственности за их содержание. Просьба не заливать файлы, защищенные авторскими правами, а также файлы нелегального содержания!