[ Сегодня идет свободное скачивание без начисления Download ]


Статистика раздачи
Скачал: [ 2 ]
 
   
 
 
 
 
Бюро человечества
The Humanity Bureau
- Информация
Производство: Канада / Bridgegate Pictures, Minds Eye Entertainment, VMI Worldwide
Жанр: Боевик, Фантастика
Режиссер: Роб В. Кинг
Продюсер: Кевин ДеУолт, Даниэль Мастерс, Келли-Рэй Бачен
Актеры: Николас Кейдж, Сара Линд, Хью Диллон, Виселос Реон Шеннон, Джейкоб Дейвис, Лорни Кардинал, Джетт Клине, Дэвид Ловгрен, Лео Фафард, Курт Макс Рунте
Описание:
В отдалённом будущем американское правительство утвердило секретную программу, по которой бедных, необразованных и неугодных стране людей сначала высылают в колонию, а затем уничтожают. Одно из таких дел попадает в руки агента. Проникшись симпатией к одинокой матери и её сыну, он решает помочь им бежать.


Дата мировой премьеры: 01.12.2017
Дата российской премьеры: В России премьеры не будет
Продолжительность: 01:34:24
Перевод: Многоголосый закадровый, любительский (MUZOBOZ)
Файл
Качество видео: WEB-DL Сэмпл
Видео: AVC/H.264, 1920x1072, ~5183 Kbps
Аудио: AC3, 2 ch, 192 Kbps
Субтитры: отсутствуют

Mediainfo:

Общее
Уникальный идентификатор : 263324101460043909357474401589187989303 (0xC61A6090B55EBAE507FE92B974024F37)
Полное имя : E:\Бюро человечества_The Humanity Bureau.mkv
Формат : Matroska
Версия формата : Version 4 / Version 2
Размер файла : 3,55 Гбайт
Продолжительность : 1 ч. 34 м.
Общий поток : 5377 Кбит/сек
Дата кодирования : UTC 2018-03-26 14:33:36
Программа кодирования : mkvmerge v21.0.0 ('Tardigrades Will Inherit The Earth') 64-bit
Библиотека кодирования : libebml v1.3.5 + libmatroska v1.4.8
Обложка : Yes
Attachments : small_cover.jpg / small_cover_land.jpg / cover.jpg / cover_land.jpg
Видео
Идентификатор : 1
Формат : AVC
Формат/Информация : Advanced Video Codec
Профиль формата : [email protected]
Настройки формата : CABAC / 4 Ref Frames
Параметр CABAC формата : Да
Параметр RefFrames формата : 4 кадра
Идентификатор кодека : V_MPEG4/ISO/AVC
Продолжительность : 1 ч. 34 м.
Битрейт : 5183 Кбит/сек
Ширина : 1920 пикселей
Высота : 1072 пикселя
Соотношение сторон : 16:9
Режим частоты кадров : Постоянный
Частота кадров : 23,976 (23976/1000) кадра/сек
Цветовое пространство : YUV
Субдискретизация насыщенности : 4:2:0
Битовая глубина : 8 бит
Тип развёртки : Прогрессивная
Бит/(Пиксели*Кадры) : 0.105
Размер потока : 3,42 Гбайт (96%)
Язык : English
Default : Да
Forced : Нет
Цветовой диапазон : Limited
Основные цвета : BT.709
Характеристики трансфера : BT.709
Коэффициенты матрицы : BT.709
Аудио
Идентификатор : 2
Формат : AC-3
Формат/Информация : Audio Coding 3
Идентификатор кодека : A_AC3
Продолжительность : 1 ч. 34 м.
Вид битрейта : Постоянный
Битрейт : 192 Кбит/сек
Каналы : 2 канала
Расположение каналов : Front: L R
Частота : 48,0 КГц
Частота кадров : 31,250 кадров/сек (1536 SPF)
Битовая глубина : 16 бит
Метод сжатия : С потерями
Задержка видео : -42 мс.
Размер потока : 130 Мбайт (4%)
Язык : Russian
ServiceKind/String : Complete Main
Default : Да
Forced : Нет
Меню
00:00:00.000 : en:1
00:15:44.110 : en:2
00:29:44.658 : en:3
00:44:19.574 : en:4
00:58:33.052 : en:5
01:15:35.407 : en:6
01:29:22.567 : en:7

Скриншоты

Скриншоты:

[Цитировать]



Показать сообщения:    

Текущее время: 20-Окт 11:33

Часовой пояс: UTC + 6


Вы не можете начинать темы
Вы не можете отвечать на сообщения
Вы не можете редактировать свои сообщения
Вы не можете удалять свои сообщения
Вы не можете голосовать в опросах
Вы не можете прикреплять файлы к сообщениям
Вы не можете скачивать файлы

!ВНИМАНИЕ!
Сайт не предоставляет электронные версии произведений, а занимается лишь коллекционированием и каталогизацией ссылок, присылаемых и публикуемых на форуме нашими читателями. Если вы являетесь правообладателем какого-либо представленного материала и не желаете, чтобы ссылка на него находилась в нашем каталоге, свяжитесь с нами, и мы незамедлительно удалим ее. Файлы для обмена на трекере предоставлены пользователями сайта, и администрация не несет ответственности за их содержание. Просьба не заливать файлы, защищенные авторскими правами, а также файлы нелегального содержания!