[ Сегодня идет свободное скачивание без начисления Download ]


Статистика раздачи
Скачал: [ 7 ]
 
   
 
 
 
 
Я сражаюсь с великанами
I Kill Giants
- Информация
Производство: Бельгия, Великобритания, США / 1492 Pictures, Adonis Production
Жанр: Фэнтези, триллер, драма
Режиссер: Андерс Вальтер Хансен
Актеры: Зои Салдана, Имоджен Путс, Дженнифер Эль, Ноэль Кларк, Мэдисон Вульф, Рори Джексон, Сиара О Каллаган, Сидни Вэйд, Эйдин Уайлд, Аманда Стюарт
Описание:
Барбара Торсон — особенная, ее уникальный талант — это возможность видеть мир великанов. И этот мир угрожает людям. Барбаре никто не верит, но она единственная, кто может спасти человечество от исчезновения. Она объявляет великанам войну и готовится к главному сражению в своей жизни.


Возраст: 12+ (зрителям, достигшим 12 лет)
Дата мировой премьеры: 9 сентября 2017
Дата премьеры в России: 29 марта 2018
Продолжительность: 01:46:10
Перевод: Многоголосый закадровый, любительский (MUZOBOZ)
Файл
Качество видео: WEB-DLRip Сэмпл
Видео: H.264/AVC, 1912x800, ~4914 Kbps
Аудио: AC-3, 48.0 KHz, 2 ch, 384 Kbps
Субтитры: Отсутствуют
Присутствуют вставки текстовой рекламы

MediaInfo:

Общее
Полное имя : E:\NNM\Я сражаюсь с великанами\I Kill Giants 2017 WEB-DLRip 1080p-LQ.mkv
Формат : Matroska
Версия формата : Version 2
Размер файла : 4,01 Гбайт
Продолжительность : 1 ч. 46 м.
Режим общего битрейта : Переменный
Общий поток : 5406 Кбит/сек
Программа кодирования : libmatroska 1.4.1
Видео
Идентификатор : 1
Формат : AVC
Формат/Информация : Advanced Video Codec
Профиль формата : [email protected]
Настройки формата : CABAC / 4 Ref Frames
Параметр CABAC формата : Да
Параметр RefFrames формата : 4 кадра
Идентификатор кодека : V_MPEG4/ISO/AVC
Продолжительность : 1 ч. 46 м.
Вид битрейта : Переменный
Битрейт : 4914 Кбит/сек
Максимальный битрейт : 5700 Кбит/сек
Ширина : 1912 пикселей
Высота : 800 пикселей
Соотношение сторон : 2,40:1
Режим частоты кадров : Постоянный
Частота кадров : 23,976 (24000/1001) кадра/сек
Стандарт вещания : Component
Цветовое пространство : YUV
Субдискретизация насыщенности : 4:2:0
Битовая глубина : 8 бит
Тип развёртки : Прогрессивная
Бит/(Пиксели*Кадры) : 0.134
Размер потока : 3,64 Гбайт (91%)
Default : Нет
Forced : Нет
Цветовой диапазон : Limited
Основные цвета : BT.709
Характеристики трансфера : BT.709
Коэффициенты матрицы : BT.709
Аудио
Идентификатор : 2
Формат : AC-3
Формат/Информация : Audio Coding 3
Идентификатор кодека : A_AC3
Продолжительность : 1 ч. 46 м.
Вид битрейта : Постоянный
Битрейт : 384 Кбит/сек
Каналы : 2 канала
Расположение каналов : Front: L R
Частота : 48,0 КГц
Частота кадров : 31,250 кадров/сек (1536 SPF)
Битовая глубина : 16 бит
Метод сжатия : С потерями
Размер потока : 292 Мбайт (7%)
ServiceKind/String : Complete Main
Default : Нет
Forced : Нет

Скриншоты

Скриншоты:

[Цитировать]



Показать сообщения:    

Текущее время: 16-Окт 19:30

Часовой пояс: UTC + 6


Вы не можете начинать темы
Вы не можете отвечать на сообщения
Вы не можете редактировать свои сообщения
Вы не можете удалять свои сообщения
Вы не можете голосовать в опросах
Вы не можете прикреплять файлы к сообщениям
Вы не можете скачивать файлы

!ВНИМАНИЕ!
Сайт не предоставляет электронные версии произведений, а занимается лишь коллекционированием и каталогизацией ссылок, присылаемых и публикуемых на форуме нашими читателями. Если вы являетесь правообладателем какого-либо представленного материала и не желаете, чтобы ссылка на него находилась в нашем каталоге, свяжитесь с нами, и мы незамедлительно удалим ее. Файлы для обмена на трекере предоставлены пользователями сайта, и администрация не несет ответственности за их содержание. Просьба не заливать файлы, защищенные авторскими правами, а также файлы нелегального содержания!