[ Сегодня идет свободное скачивание без начисления Download ]


Статистика раздачи
Скачал: [ 2 ]
 
   
 
 
 
 
Кармилла
The Carmilla Movie
- Информация
Производство: Канада / Shaftesbury Films
Жанр: Комедия, ужасы, мелодрама, экранизация
Режиссер: Спенсер Мэйби
Актеры: Элиз Бауман, Наташа Негованлис, Энни Бриггс, Кейтлин Александр, Николь Стэмп, Доминик Провост-Чалкли, Грэйс Линн Кунг, Кара Ги, Софи Уолкер
Описание:
Судьба женщины-вампира Кармиллы складывается так, что ей дается шанс стать вновь простым смертным человеком. Вместе со своей подругой они снимают квартиру неподалеку от Торонто и пытаются жить, как и все люди вокруг. Однако вампирские наклонности все еще не покинули нашу героиню и чем дальше, тем ей становится труднее совладать с собой. Обратившись за помощью к своим старым друзьям из университета, девушки пытаются найти способы избавиться от проклятия. Идя по следу разгадок, подруги приходят в очень старинный замок, где они найдут то, что искали. Их ждет невероятное приключение, полное загадок и опасностей.
Экранизация культового романа ирландца Джозефа Шеридана Ле Фаню.


Дата мировой премьеры: 26 октября 2017
Продолжительность: 01:34:07
Перевод: Многоголосый закадровый, любительский (Синема УС)
Файл
Качество видео: WEB-DLRip Сэмпл
Видео: H.264/AVC, 1280x534, ~4395 Kbps
Аудио: AC-3, 48.0 KHz, 2 ch, 384 Kbps
Субтитры: Отсутствуют
Присутствуют вставки текстовой рекламы

MediaInfo:

Общее
Полное имя : E:\NNM\Кармилла\The Carmilla Movie 2017 WEB-DLRip 720p-LQ.mkv
Формат : Matroska
Версия формата : Version 2
Размер файла : 3,21 Гбайт
Продолжительность : 1 ч. 34 м.
Режим общего битрейта : Переменный
Общий поток : 4876 Кбит/сек
Программа кодирования : libmatroska 1.4.1
Видео
Идентификатор : 1
Формат : AVC
Формат/Информация : Advanced Video Codec
Профиль формата : [email protected]
Настройки формата : CABAC / 4 Ref Frames
Параметр CABAC формата : Да
Параметр RefFrames формата : 4 кадра
Идентификатор кодека : V_MPEG4/ISO/AVC
Продолжительность : 1 ч. 34 м.
Вид битрейта : Переменный
Битрейт : 4395 Кбит/сек
Максимальный битрейт : 5000 Кбит/сек
Ширина : 1280 пикселей
Высота : 534 пикселя
Соотношение сторон : 2,40:1
Режим частоты кадров : Постоянный
Частота кадров : 23,976 (24000/1001) кадра/сек
Стандарт вещания : Component
Цветовое пространство : YUV
Субдискретизация насыщенности : 4:2:0
Битовая глубина : 8 бит
Тип развёртки : Прогрессивная
Бит/(Пиксели*Кадры) : 0.268
Размер потока : 2,89 Гбайт (90%)
Default : Нет
Forced : Нет
Цветовой диапазон : Limited
Основные цвета : BT.709
Характеристики трансфера : BT.709
Коэффициенты матрицы : BT.709
Аудио
Идентификатор : 2
Формат : AC-3
Формат/Информация : Audio Coding 3
Идентификатор кодека : A_AC3
Продолжительность : 1 ч. 34 м.
Вид битрейта : Постоянный
Битрейт : 384 Кбит/сек
Каналы : 2 канала
Расположение каналов : Front: L R
Частота : 48,0 КГц
Частота кадров : 31,250 кадров/сек (1536 SPF)
Битовая глубина : 16 бит
Метод сжатия : С потерями
Размер потока : 259 Мбайт (8%)
ServiceKind/String : Complete Main
Default : Нет
Forced : Нет

Скриншоты

Скриншоты:

[Цитировать]



Показать сообщения:    

Текущее время: 20-Окт 11:33

Часовой пояс: UTC + 6


Вы не можете начинать темы
Вы не можете отвечать на сообщения
Вы не можете редактировать свои сообщения
Вы не можете удалять свои сообщения
Вы не можете голосовать в опросах
Вы не можете прикреплять файлы к сообщениям
Вы не можете скачивать файлы

!ВНИМАНИЕ!
Сайт не предоставляет электронные версии произведений, а занимается лишь коллекционированием и каталогизацией ссылок, присылаемых и публикуемых на форуме нашими читателями. Если вы являетесь правообладателем какого-либо представленного материала и не желаете, чтобы ссылка на него находилась в нашем каталоге, свяжитесь с нами, и мы незамедлительно удалим ее. Файлы для обмена на трекере предоставлены пользователями сайта, и администрация не несет ответственности за их содержание. Просьба не заливать файлы, защищенные авторскими правами, а также файлы нелегального содержания!