[ Сегодня идет свободное скачивание без начисления Download ]


Статистика раздачи
Нет
 
   
 
 
 
 
Психонавты, забытые дети
Birdboy: The Forgotten Children / Psiconautas, los niños olvidados
- Информация
Год: 2015
Производство: Испания, Япония
Abrakan Estudio, Basque Films S.L., Competencia Producciones, La, NYAV Post, Studio 4°C, Zircozine
Жанр: Рисованная анимация, Ужасы, Фантастика, Драма
Режиссер: Педро Риверо, Альберто Васкес
Персонажи: Феликс Аркарасо, Хорхе Карреро, Марибель Легаррета, Кепа Куэто
Описание:
На некогда прекрасном острове произошла техногенная катастрофа, и теперь добрая его половина утопает в отходах. Часть населения роется в горах мусора, выискивая медь, а часть пытается вести привычный образ жизни. Школьница-мышка Динки с друзьями мечтает сбежать с ненавистного острова и надеется, что её бывший парень - Бёрдбой - научится хорошо летать и заберёт её в другое место. Но между беглецами и лучшей жизнью стоит жестокость окружающей реальности и их внутренние демоны.


Продолжительность: 01:16:23
Перевод: Двухголосый закадровый, любительский
Озвучка / Автор перевода: NewStation по субтитрам FM
Файл
Качество видео: BDRemux Сэмпл Сэмпл
Видео: AVC/H.264, 1920х1080, ~25.7 Mb/s
Аудио 1: AC3, 6 ch, 384 - Русский
Аудио 2: DTS-HD MA 5.1, 3840 kbps - Английский дубляж
Аудио 3: DTS-HD MA 5.1, 3649 kbps - Испанский оригинальный
Субтитры: Русские, Английские, Испанские, Французские

Mediainfo:

Complete name : Psiconautas, los niños olvidados.2015.BDRemux.mkv
Format : Matroska
Format version : Version 4 / Version 2
File size : 17.9 GiB
Duration : 1 h 16 min
Overall bit rate : 33.5 Mb/s
Movie name : Psiconautas, los niños olvidados.2015.BDRemux
Encoded date : UTC 2018-05-15 16:27:28
Writing application : mkvmerge v8.3.0 ('Over the Horizon') 64bit
Writing library : libebml v1.3.1 + libmatroska v1.4.2
Video
ID : 1
Format : AVC
Format/Info : Advanced Video Codec
Format profile : [email protected]
Format settings : CABAC / 4 Ref Frames
Format settings, CABAC : Yes
Format settings, ReFrames : 4 frames
Codec ID : V_MPEG4/ISO/AVC
Duration : 1 h 16 min
Bit rate mode : Constant
Bit rate : 25.7 Mb/s
Nominal bit rate : 35.0 Mb/s
Width : 1 920 pixels
Height : 1 080 pixels
Display aspect ratio : 16:9
Frame rate mode : Constant
Frame rate : 23.976 (24000/1001) FPS
Color space : YUV
Chroma subsampling : 4:2:0
Bit depth : 8 bits
Scan type : Progressive
Bits/(Pixel*Frame) : 0.518
Stream size : 13.7 GiB (77%)
Title : Psiconautas, los niños olvidados.2015.BDRemux
Language : English
Default : Yes
Forced : No
Audio #1
ID : 2
Format : AC-3
Format/Info : Audio Coding 3
Codec ID : A_AC3
Duration : 1 h 15 min
Bit rate mode : Constant
Bit rate : 384 kb/s
Channel(s) : 6 channels
Channel positions : Front: L C R, Side: L R, LFE
Sampling rate : 48.0 kHz
Frame rate : 31.250 FPS (1536 SPF)
Bit depth : 16 bits
Compression mode : Lossy
Stream size : 209 MiB (1%)
Title : AC3 5.1 @ 384 kbps - Любительский двухголосый, NewStation (по субтитрам FM)
Language : Russian
Service kind : Complete Main
Default : Yes
Forced : No
Audio #2
ID : 3
Format : DTS
Format/Info : Digital Theater Systems
Format profile : MA / Core
Codec ID : A_DTS
Duration : 1 h 16 min
Bit rate mode : Variable / Constant
Bit rate : 3 840 kb/s / 1 509 kb/s
Channel(s) : 6 channels
Channel positions : Front: L C R, Side: L R, LFE
Sampling rate : 48.0 kHz
Frame rate : 93.750 FPS (512 SPF)
Bit depth : 24 bits
Compression mode : Lossless / Lossy
Stream size : 2.01 GiB (11%)
Title : DTS-HD MA 5.1 @ 3840 kbps
Language : English
Default : No
Forced : No
Audio #3
ID : 4
Format : DTS
Format/Info : Digital Theater Systems
Format profile : MA / Core
Codec ID : A_DTS
Duration : 1 h 16 min
Bit rate mode : Variable / Constant
Bit rate : 3 649 kb/s / 1 509 kb/s
Channel(s) : 6 channels
Channel positions : Front: L C R, Side: L R, LFE
Sampling rate : 48.0 kHz
Frame rate : 93.750 FPS (512 SPF)
Bit depth : 24 bits
Compression mode : Lossless / Lossy
Stream size : 1.95 GiB (11%)
Title : DTS-HD MA 5.1 @ 3649 kbps
Language : Spanish
Default : No
Forced : No
Text #1
ID : 5
Format : UTF-8
Codec ID : S_TEXT/UTF8
Codec ID/Info : UTF-8 Plain Text
Duration : 1 h 10 min
Bit rate : 75 b/s
Count of elements : 738
Stream size : 39.2 KiB (0%)
Language : Russian
Default : No
Forced : No
Text #2
ID : 6
Format : UTF-8
Codec ID : S_TEXT/UTF8
Codec ID/Info : UTF-8 Plain Text
Duration : 1 h 12 min
Bit rate : 44 b/s
Count of elements : 694
Stream size : 23.8 KiB (0%)
Language : English
Default : No
Forced : No
Text #3
ID : 7
Format : UTF-8
Codec ID : S_TEXT/UTF8
Codec ID/Info : UTF-8 Plain Text
Duration : 1 h 10 min
Bit rate : 0 b/s
Count of elements : 21
Stream size : 425 Bytes (0%)
Language : English
Default : No
Forced : No
Text #4
ID : 8
Format : UTF-8
Codec ID : S_TEXT/UTF8
Codec ID/Info : UTF-8 Plain Text
Duration : 1 h 13 min
Bit rate : 41 b/s
Count of elements : 723
Stream size : 22.6 KiB (0%)
Language : French
Default : No
Forced : No
Menu
00:00:00.000 : en:00:00:00.000
00:06:29.139 : en:00:06:29.139
00:12:21.741 : en:00:12:21.741
00:17:33.511 : en:00:17:33.511
00:22:45.864 : en:00:22:45.864
00:27:06.333 : en:00:27:06.333
00:33:33.637 : en:00:33:33.637
00:40:05.153 : en:00:40:05.153
00:45:09.498 : en:00:45:09.498
00:50:50.547 : en:00:50:50.547
00:55:28.033 : en:00:55:28.033
00:59:10.005 : en:00:59:10.005
01:04:53.473 : en:01:04:53.473
01:08:59.886 : en:01:08:59.886
01:11:04.886 : en:01:11:04.886

Скриншоты

Скриншоты:

Дополнительные скриншоты:


[Цитировать]



Показать сообщения:    

Текущее время: 20-Окт 00:54

Часовой пояс: UTC + 6


Вы не можете начинать темы
Вы не можете отвечать на сообщения
Вы не можете редактировать свои сообщения
Вы не можете удалять свои сообщения
Вы не можете голосовать в опросах
Вы не можете прикреплять файлы к сообщениям
Вы не можете скачивать файлы

!ВНИМАНИЕ!
Сайт не предоставляет электронные версии произведений, а занимается лишь коллекционированием и каталогизацией ссылок, присылаемых и публикуемых на форуме нашими читателями. Если вы являетесь правообладателем какого-либо представленного материала и не желаете, чтобы ссылка на него находилась в нашем каталоге, свяжитесь с нами, и мы незамедлительно удалим ее. Файлы для обмена на трекере предоставлены пользователями сайта, и администрация не несет ответственности за их содержание. Просьба не заливать файлы, защищенные авторскими правами, а также файлы нелегального содержания!