[ Сегодня идет свободное скачивание без начисления Download ]


Статистика раздачи
Качаю: [ 1 ]
Скачал: [ 15 ]
 
   
 
 
 
 
Паранормальное
The Endless
- Информация
Производство: США / Snowfort Pictures, Pfaff & Pfaff Productions, Love & Death Productions
Жанр: Ужасы, фантастика, фэнтези, триллер
Режиссер: Джастин Бенсон, Аарон Мурхед
Актеры: Калли Эрнандес, Лью Темпл, Эмили Монтегью, Джеймс Джордан, Тейт Эллингтон, Джастин Бенсон, Аарон Мурхед, Рик Сарабиа, Кира Пауэлл, Питер Силелла
Описание:
Детьми братья Джастин и Аарон бежали из секты конца света. Через 10 лет они получают видеопослание от членов культа и решают навестить свою бывшую «семью». Но, вернувшись, они понимают, что кассету им никто не посылал, а с этим местом явно что-то не так. Что нечто потустороннее, во что верят сектанты, существует на самом деле.


Возраст: 16+ (зрителям, достигшим 16 лет)
Дата мировой премьеры: 21 апреля 2017
Дата премьеры в России: 19 июля 2018, «Экспонента»
Продолжительность: 01:51:16
Перевод: Многоголосый закадровый, любительский (MUZOBOZ)
Файл
Качество видео: WEB-DLRip Сэмпл
Видео: H.264/AVC, 1280x536, ~6153 Kbps
Аудио: AC-3, 48.0 KHz, 2 ch, 448 Kbps
Субтитры: Отсутствуют
Присутствуют вставки текстовой рекламы

MediaInfo:

Общее
Полное имя : E:\Паранормальное\The Endless 2017 BDRip 720p-LQ.mkv
Формат : Matroska
Версия формата : Version 2
Размер файла : 5,23 Гбайт
Продолжительность : 1 ч. 51 м.
Режим общего битрейта : Переменный
Общий поток : 6735 Кбит/сек
Программа кодирования : libmatroska 1.4.1
Видео
Идентификатор : 1
Формат : AVC
Формат/Информация : Advanced Video Codec
Профиль формата : [email protected]
Настройки формата : CABAC / 4 Ref Frames
Параметр CABAC формата : Да
Параметр RefFrames формата : 4 кадра
Идентификатор кодека : V_MPEG4/ISO/AVC
Продолжительность : 1 ч. 51 м.
Вид битрейта : Переменный
Битрейт : 6153 Кбит/сек
Максимальный битрейт : 6900 Кбит/сек
Ширина : 1280 пикселей
Высота : 536 пикселей
Соотношение сторон : 2,40:1
Режим частоты кадров : Постоянный
Частота кадров : 23,976 (24000/1001) кадра/сек
Стандарт вещания : Component
Цветовое пространство : YUV
Субдискретизация насыщенности : 4:2:0
Битовая глубина : 8 бит
Тип развёртки : Прогрессивная
Бит/(Пиксели*Кадры) : 0.374
Размер потока : 4,78 Гбайт (91%)
Default : Нет
Forced : Нет
Цветовой диапазон : Limited
Основные цвета : BT.709
Характеристики трансфера : BT.709
Коэффициенты матрицы : BT.709
Аудио
Идентификатор : 2
Формат : AC-3
Формат/Информация : Audio Coding 3
Идентификатор кодека : A_AC3
Продолжительность : 1 ч. 51 м.
Вид битрейта : Постоянный
Битрейт : 448 Кбит/сек
Каналы : 2 канала
Расположение каналов : Front: L R
Частота : 48,0 КГц
Частота кадров : 31,250 кадров/сек (1536 SPF)
Битовая глубина : 16 бит
Метод сжатия : С потерями
Размер потока : 357 Мбайт (7%)
ServiceKind/String : Complete Main
Default : Нет
Forced : Нет

Скриншоты

Скриншоты:

[Цитировать]



Показать сообщения:    

Текущее время: 20-Окт 11:34

Часовой пояс: UTC + 6


Вы не можете начинать темы
Вы не можете отвечать на сообщения
Вы не можете редактировать свои сообщения
Вы не можете удалять свои сообщения
Вы не можете голосовать в опросах
Вы не можете прикреплять файлы к сообщениям
Вы не можете скачивать файлы

!ВНИМАНИЕ!
Сайт не предоставляет электронные версии произведений, а занимается лишь коллекционированием и каталогизацией ссылок, присылаемых и публикуемых на форуме нашими читателями. Если вы являетесь правообладателем какого-либо представленного материала и не желаете, чтобы ссылка на него находилась в нашем каталоге, свяжитесь с нами, и мы незамедлительно удалим ее. Файлы для обмена на трекере предоставлены пользователями сайта, и администрация не несет ответственности за их содержание. Просьба не заливать файлы, защищенные авторскими правами, а также файлы нелегального содержания!