[ Сегодня идет свободное скачивание без начисления Download ]


Статистика раздачи
Скачал: [ 4 ]
 
   
 
 
 
 
На износ / Burn Out (2017) BDRip 1080p Информация о фильме
Название: На износ
Оригинальное название: Burn Out
Год выпуска: 2017
Жанр: Боевик, триллер
Выпущено: Франция, Бельгия, 2425 Films, Wy Productions, Gaumont
Режиссер: Ян Гозлан
В ролях: Мэнон Азем, Франсуа Сивиль, Самуэль Жуи, Нарцисс Мамэ, Оливье Рабурден
О фильме: Молодой гонщик по имени Тони не видит жизни без мотоциклетных гонок. Однажды ему выпадает шанс выступать за «Дукати», но для этого ему нужно усердно тренироваться. Но дело усложняет Лейла, бывшая подруга нашего героя, которая попала в переплет. Чтобы вытащить подругу из беды, Тони соглашается поработать на наркоторговцев. От этого всего у Тони идет кругом голова, заставляя его работать буквально на износ.

Продолжительность: 01:43:10
Перевод: Любительский одноголосый (BadBajo)
Субтитры: отсутствуют
Файл
Качество: BDRip (1080p)
Видео: MPEG-4 AVC, 8784 Кбит/с, 1920х806
Аудио #1: Русский (АC3, 6 ch, 640 Кбит/с)
Аудио #2: Французский (АC3, 6 ch, 640 Кбит/с)

МедиаИнфо

Формат : Matroska
Версия формата : Version 2
Размер файла : 7,25 Гбайт
Продолжительность : 1 ч. 43 м.
Общий поток : 10,1 Мбит/сек
Название фильма : ~V ad~
Дата кодирования : UTC 2018-06-27 15:17:59
Программа кодирования : mkvmerge v6.5.0 ('Isn't she lovely') built on Oct 20 2013 12:50:05
Библиотека кодирования : libebml v1.3.0 + libmatroska v1.4.1
Обложка : Yes
Attachments : cover.jpg
Видео
Идентификатор : 1
Формат : AVC
Формат/Информация : Advanced Video Codec
Профиль формата : [email protected]
Настройки формата : CABAC / 5 Ref Frames
Параметр CABAC формата : Да
Параметр RefFrames формата : 5 кадров
Идентификатор кодека : V_MPEG4/ISO/AVC
Продолжительность : 1 ч. 43 м.
Битрейт : 8784 Кбит/сек
Ширина : 1920 пикселей
Высота : 806 пикселей
Соотношение сторон : 2,40:1
Режим частоты кадров : Постоянный
Частота кадров : 24,000 кадра/сек
Цветовое пространство : YUV
Субдискретизация насыщенности : 4:2:0
Битовая глубина : 8 бит
Тип развёртки : Прогрессивная
Бит/(Пиксели*Кадры) : 0.237
Размер потока : 6,18 Гбайт (85%)
Заголовок : ~V~
Библиотека кодирования : x264 core 155 r2901 7d0ff22
Настройки программы : cabac=1 / ref=5 / deblock=1:-3:-3 / analyse=0x3:0x133 / me=umh / subme=11 / psy=1 / psy_rd=1.00:0.00 / mixed_ref=1 / me_range=32 / chroma_me=1 / trellis=2 / 8x8dct=1 / cqm=0 / deadzone=21,11 / fast_pskip=0 / chroma_qp_offset=-2 / threads=12 / lookahead_threads=1 / sliced_threads=0 / nr=0 / decimate=0 / interlaced=0 / bluray_compat=0 / constrained_intra=0 / bframes=11 / b_pyramid=2 / b_adapt=2 / b_bias=0 / direct=3 / weightb=1 / open_gop=0 / weightp=2 / keyint=240 / keyint_min=24 / scenecut=40 / intra_refresh=0 / rc=2pass / mbtree=0 / bitrate=8784 / ratetol=1.0 / qcomp=0.80 / qpmin=0 / qpmax=69 / qpstep=4 / cplxblur=20.0 / qblur=0.5 / ip_ratio=1.18 / pb_ratio=1.24 / aq=3:0.70
Язык : Английский
Default : Да
Forced : Нет
Аудио #1
Идентификатор : 2
Формат : AC-3
Формат/Информация : Audio Coding 3
Идентификатор кодека : A_AC3
Продолжительность : 1 ч. 43 м.
Вид битрейта : Постоянный
Битрейт : 640 Кбит/сек
Каналы : 6 каналов
Расположение каналов : Front: L C R, Side: L R, LFE
Частота : 48,0 КГц
Частота кадров : 31,250 кадров/сек (1536 SPF)
Битовая глубина : 16 бит
Метод сжатия : С потерями
Размер потока : 472 Мбайт (6%)
Заголовок : AVO[BadBajo]
Язык : Русский
Service Kind : Complete Main
Default : Да
Forced : Да
Аудио #2
Идентификатор : 3
Формат : AC-3
Формат/Информация : Audio Coding 3
Идентификатор кодека : A_AC3
Продолжительность : 1 ч. 43 м.
Вид битрейта : Постоянный
Битрейт : 640 Кбит/сек
Каналы : 6 каналов
Расположение каналов : Front: L C R, Side: L R, LFE
Частота : 48,0 КГц
Частота кадров : 31,250 кадров/сек (1536 SPF)
Битовая глубина : 16 бит
Метод сжатия : С потерями
Размер потока : 472 Мбайт (6%)
Язык : Французский
Service Kind : Complete Main
Default : Нет
Forced : Нет
Меню
00:00:00.000 : en:01
00:08:41.625 : en:02
00:17:58.208 : en:03
00:26:29.958 : en:04
00:35:14.875 : en:05
00:44:31.666 : en:06
00:53:10.833 : en:07
01:00:57.458 : en:08
01:10:23.375 : en:09
01:21:10.500 : en:10
01:31:20.708 : en:11
01:38:29.041 : en:12

Скриншоты



Сэмпл

[Цитировать]



Показать сообщения:    

Текущее время: 20-Окт 11:32

Часовой пояс: UTC + 6


Вы не можете начинать темы
Вы не можете отвечать на сообщения
Вы не можете редактировать свои сообщения
Вы не можете удалять свои сообщения
Вы не можете голосовать в опросах
Вы не можете прикреплять файлы к сообщениям
Вы не можете скачивать файлы

!ВНИМАНИЕ!
Сайт не предоставляет электронные версии произведений, а занимается лишь коллекционированием и каталогизацией ссылок, присылаемых и публикуемых на форуме нашими читателями. Если вы являетесь правообладателем какого-либо представленного материала и не желаете, чтобы ссылка на него находилась в нашем каталоге, свяжитесь с нами, и мы незамедлительно удалим ее. Файлы для обмена на трекере предоставлены пользователями сайта, и администрация не несет ответственности за их содержание. Просьба не заливать файлы, защищенные авторскими правами, а также файлы нелегального содержания!