[ Сегодня идет свободное скачивание без начисления Download ]


Статистика раздачи
Скачал: [ 4 ]
 
   
 
 
 
 
Прикончи меня / Ruin Me Информация о фильме
Название: Прикончи меня
Оригинальное название: Ruin Me
Год выхода: 2017
Жанр: триллер
Режиссер: Престон Дефрансис
В ролях: Маркинн Дваер, Мэттью Деллапинья, Крис Хилл, Ева Хэмилтон, Джон Одом, Сэмюэль Эшдаун, Камерон Гордон, Ричард 'Рокки' Ректор, Том Гарриман, Алекс Галик
О фильме:
Александра против своей воли принимает участие в игре по мотивам фильмов-слэшеров, где участники должны сбежать от маньяка с ножом. Но когда её друзей начинают убивать по-настоящему, Алекс остаётся только выучить правила игры и постараться выжить.

Страна: США
Студия: Terror Weekend Productions
Продолжительность: 01:27:35
Перевод: любительский одноголосный, закадровый [Хихикающий доктор]
Файл
Кодек: H.264
Качество: WEBRip 1080p
Видео: AVC, 1920x1080 (16:9), 23.976 fps ~ 6090 Kbps
Звук:
AC3, 48 KHz, 2 ch ~ 192 Kb/s (русский)
E-AC3, 48 KHz, 2 ch ~ 224 Kb/s (английский)
Субтитры: английские
Семпл

MI:

Общее
Уникальный идентификатор : 186217454170238343688796407430934662717 (0x8C182D576F5B1C6BB71D972B24778E3D)
Полное имя : Q:TorFRuin.Me.2017.1080p.mkv
Формат : Matroska
Версия формата : Version 2
Размер файла : 4,06 Гбайт
Продолжительность : 1 ч. 27 м.
Общий поток : 6640 Кбит/сек
Дата кодирования : UTC 2018-06-10 22:01:28
Программа кодирования : mkvmerge v5.4.0 ('Piper') built on Mar 10 2012 13:34:39
Библиотека кодирования : libebml v1.2.3 + libmatroska v1.3.0
DURATION : 01:27:12.532000000
NUMBER_OF_FRAMES : 1390
NUMBER_OF_BYTES : 32339
_STATISTICS_WRITING_APP : mkvmerge v21.0.0 ('Tardigrades Will Inherit The Earth') 64-bit
_STATISTICS_WRITING_DATE_UTC : 2018-07-20 09:44:16
_STATISTICS_TAGS : BPS DURATION NUMBER_OF_FRAMES NUMBER_OF_BYTES
Видео
Идентификатор : 1
Формат : AVC
Формат/Информация : Advanced Video Codec
Профиль формата : [email protected]
Параметр CABAC формата : Да
Параметр ReFrames формата : 4 кадра
Идентификатор кодека : V_MPEG4/ISO/AVC
Продолжительность : 1 ч. 27 м.
Битрейт : 6092 Кбит/сек
Ширина : 1920 пикселей
Высота : 1080 пикселей
Соотношение сторон : 16:9
Частота кадров : 23,976 кадра/сек
Цветовое пространство : YUV
Субдискретизация насыщенности : 4:2:0
Битовая глубина : 8 бит
Тип развёртки : Прогрессивная
Бит/(Пиксели*Кадры) : 0.123
Размер потока : 3,73 Гбайт (92%)
Язык : English
Default : Да
Forced : Нет
Основные цвета : BT.709-5, BT.1361, IEC 61966-2-4, SMPTE RP177
Характеристики трансфера : BT.709-5, BT.1361
Коэффициенты матрицы : BT.709-5, BT.1361, IEC 61966-2-4 709, SMPTE RP177
Аудио #1
Идентификатор : 2
Формат : AC-3
Формат/Информация : Audio Coding 3
Расширение режима : CM (complete main)
Идентификатор кодека : A_AC3
Продолжительность : 1 ч. 27 м.
Вид битрейта : Постоянный
Битрейт : 192 Кбит/сек
Каналы : 2 канала
Расположение каналов : Front: L R
Частота : 48,0 КГц
Битовая глубина : 16 бит
Метод сжатия : С потерями
Размер потока : 120 Мбайт (3%)
Заголовок : xixdok
Язык : Russian
Default : Да
Forced : Нет
Аудио #2
Идентификатор : 3
Формат : E-AC-3
Формат/Информация : Audio Coding 3
Идентификатор кодека : A_EAC3
Продолжительность : 1 ч. 27 м.
Вид битрейта : Постоянный
Битрейт : 224 Кбит/сек
Каналы : 2 канала
Расположение каналов : Front: L R
Частота : 48,0 КГц
Метод сжатия : С потерями
Размер потока : 140 Мбайт (3%)
Язык : English
Default : Нет
Forced : Нет
Текст
Идентификатор : 4
Формат : UTF-8
Идентификатор кодека : S_TEXT/UTF8
Идентификатор кодека/Информация : UTF-8 Plain Text
Заголовок : SDH
Язык : English
Default : Нет
Forced : Нет

Скриншоты

[Цитировать]



Показать сообщения:    

Текущее время: 20-Окт 11:31

Часовой пояс: UTC + 6


Вы не можете начинать темы
Вы не можете отвечать на сообщения
Вы не можете редактировать свои сообщения
Вы не можете удалять свои сообщения
Вы не можете голосовать в опросах
Вы не можете прикреплять файлы к сообщениям
Вы не можете скачивать файлы

!ВНИМАНИЕ!
Сайт не предоставляет электронные версии произведений, а занимается лишь коллекционированием и каталогизацией ссылок, присылаемых и публикуемых на форуме нашими читателями. Если вы являетесь правообладателем какого-либо представленного материала и не желаете, чтобы ссылка на него находилась в нашем каталоге, свяжитесь с нами, и мы незамедлительно удалим ее. Файлы для обмена на трекере предоставлены пользователями сайта, и администрация не несет ответственности за их содержание. Просьба не заливать файлы, защищенные авторскими правами, а также файлы нелегального содержания!