[ Сегодня идет свободное скачивание без начисления Download ]


Статистика раздачи
Скачал: [ 5 ]
 
   
 
 
 
 
Счастливого дня смерти / Happy Death Day Информация о фильме
Название: Счастливого дня смерти
Оригинальное название: Happy Death Day
Год выпуска: 2017
Жанр: ужасы, триллер, детектив, комедия
Режиссер: Кристофер Лэндон
В ролях: Джессика Рот (Tree Gelbman), Израэль Бруссар (Carter Davis), Руби Модин (Lori Spengler), Чарльз Эйткин (Gregory Butler), Лаура Клифтон (Stephanie Butler), Джейсон Бэйл (David Gelbman), Роб Мелло (John Tombs), Рэйчел Мэттьюз (Danielle Bouseman), Рэмси Андерсон (Keith Lumbly), Брэйди Льюис (Frat Brother), Фи Ву (Ryan Phan), Тени Интриаго (Student Protester)
О фильме: Три Гэлбмэн, самая популярная студентка в медицинском колледже, после празднования своего дня рождения была убита неизвестным маньяком. Однако, на следующий день она проснулась в своей постели. И так продолжается бесконечно. Что это – подарок судьбы или наказание? Ведь все воспоминания о своей предыдущей смерти у нее остаются в памяти, причем во всех подробностях. Может быть, это шанс как-то измениться самой. Как разорвать эту цепь бесконечных воскресений? Или пока она сама не найдет убийцу и не поймет причину его преступления, этот день будет снова повторяться?

MPAA: PG-13 - Детям до 13 лет просмотр не желателен
Страна: США
Студия: Blumhouse Productions, Digital Riot Media, Vesuvius Productions
Продолжительность: 01:36:20
Перевод: Профессиональный (дублированный), Профессиональный (многоголосый, закадровый), Любительский (многоголосый, закадровый), Авторский (одноголосый, закадровый)
Файл
Качество: WEB-DL 1080p | Open Matte
Формат: Matroska
Видео: 1920x1080 at 23.976 fps, MPEG-4 AVC, ~7500 kbps avg
Аудио#1: Russian: 48 kHz, DTS, 3/2 (L,C,R,l,r) + LFE ch, ~768 kbps avg |Дубляж, Blu-ray CEE|
Аудио#2: Russian: 48 kHz, AC3, 2/0 (L,R) ch, ~192 kbps avg |Многоголосый закадровый, AlexFilm|
Аудио#3: Russian: 48 kHz, AC3, 3/2 (L,C,R,l,r) + LFE ch, ~448 kbps avg |Многоголосый закадровый, Paradox & Omskbird|
Аудио#4: Russian: 48 kHz, AC3, 3/2 (L,C,R,l,r) + LFE ch, ~640 kbps avg |Авторский, М.Яроцкий|
Аудио#5: English: 48 kHz, EAC3, 3/2 (L,C,R,l,r) + LFE ch, ~640 kbps avg
Субтитры: Russian, English

Знаете ли вы, что...

Костюм убийцы в фильме разработал Тони Гарднер, автор знаменитой маски Призрачного лица из франшизы «Крик».
На футболке Три написано Dumpstaphunk. Так называется фанковая группа из Нового Орлеана, штат Луизиана.
Зрителю никто не объясняет, каким образом Три попала во временную петлю. Режиссёр Кристофер Лэндон пообещал дать объяснение в сиквеле.
В соответствии с первоначальным замыслом режиссёра, в финале фильма главная героиня снова погибает и снова попадает во временную петлю. Эта концовка страшно не понравилась зрителям во время предварительного просмотра, так что авторам фильма пришлось её изменить.

MediaInfo

Общее
Уникальный идентификатор : 184756470316357338347122786314651854064 (0x8AFECD46B50BBCE9B65D59EDE4E664F0)
Полное имя : Happy.Death.Day.2017.Open.Matte.1080p.WEB-DL.4xRus.Eng.mkv
Формат : Matroska
Версия формата : Version 4 / Version 2
Размер файла : 6,95 Гбайт
Продолжительность : 1 ч. 36 м.
Общий поток : 10,3 Мбит/сек
Название фильма : Happy.Death.Day.2017.Open.Matte.1080p.WEB-DL.4xRus.Eng-spartanec163
Дата кодирования : UTC 2018-08-11 13:01:51
Программа кодирования : mkvmerge v8.3.0 ('Over the Horizon') 64bit
Библиотека кодирования : libebml v1.3.1 + libmatroska v1.4.2
Видео
Идентификатор : 1
Формат : AVC
Формат/Информация : Advanced Video Codec
Профиль формата : [email protected]
Параметр CABAC формата : Да
Параметр ReFrames формата : 4 кадра
Идентификатор кодека : V_MPEG4/ISO/AVC
Продолжительность : 1 ч. 36 м.
Битрейт : 7439 Кбит/сек
Ширина : 1920 пикселей
Высота : 1080 пикселей
Соотношение сторон : 16:9
Режим частоты кадров : Постоянный
Частота кадров : 23,976 кадра/сек
Цветовое пространство : YUV
Субдискретизация насыщенности : 4:2:0
Битовая глубина : 8 бит
Тип развёртки : Прогрессивная
Бит/(Пиксели*Кадры) : 0.150
Размер потока : 5,01 Гбайт (72%)
Заголовок : WEB-DL 1080p (Amazon)
Язык : English
Default : Да
Forced : Нет
Основные цвета : BT.709
Характеристики трансфера : BT.709
Коэффициенты матрицы : BT.709
Аудио #1
Идентификатор : 2
Формат : DTS
Формат/Информация : Digital Theater Systems
Режим : 16
Параметр Endianness формата : Big
Идентификатор кодека : A_DTS
Продолжительность : 1 ч. 36 м.
Вид битрейта : Постоянный
Битрейт : 768 Кбит/сек
Каналы : 6 каналов
Расположение каналов : Front: L C R, Side: L R, LFE
Частота : 48,0 КГц
Битовая глубина : 24 бит
Метод сжатия : С потерями
Размер потока : 529 Мбайт (7%)
Заголовок : DTS 5.1 768Kbps (Дубляж - BluRay)
Язык : Russian
Default : Да
Forced : Нет
Аудио #2
Идентификатор : 3
Формат : AC-3
Формат/Информация : Audio Coding 3
Расширение режима : CM (complete main)
Параметр Endianness формата : Big
Идентификатор кодека : A_AC3
Продолжительность : 1 ч. 36 м.
Вид битрейта : Постоянный
Битрейт : 192 Кбит/сек
Каналы : 2 канала
Расположение каналов : Front: L R
Частота : 48,0 КГц
Битовая глубина : 16 бит
Метод сжатия : С потерями
Размер потока : 132 Мбайт (2%)
Заголовок : AC3 2.0 192Kbps (Профессиональный, многоголосый - Alexfilm)
Язык : Russian
Default : Нет
Forced : Нет
Аудио #3
Идентификатор : 4
Формат : AC-3
Формат/Информация : Audio Coding 3
Расширение режима : CM (complete main)
Параметр Endianness формата : Big
Идентификатор кодека : A_AC3
Продолжительность : 1 ч. 36 м.
Вид битрейта : Постоянный
Битрейт : 448 Кбит/сек
Каналы : 6 каналов
Расположение каналов : Front: L C R, Side: L R, LFE
Частота : 48,0 КГц
Битовая глубина : 16 бит
Метод сжатия : С потерями
Размер потока : 309 Мбайт (4%)
Заголовок : AC3 5.1 448Kbps (Любительский, многоголосый - Paradox & Omskbird)
Язык : Russian
Default : Нет
Forced : Нет
Аудио #4
Идентификатор : 5
Формат : AC-3
Формат/Информация : Audio Coding 3
Расширение режима : CM (complete main)
Параметр Endianness формата : Big
Идентификатор кодека : A_AC3
Продолжительность : 1 ч. 36 м.
Вид битрейта : Постоянный
Битрейт : 640 Кбит/сек
Каналы : 6 каналов
Расположение каналов : Front: L C R, Side: L R, LFE
Частота : 48,0 КГц
Битовая глубина : 16 бит
Метод сжатия : С потерями
Размер потока : 441 Мбайт (6%)
Заголовок : AC3 5.1 640Kbps (Одноголосый - М. Яроцкий)
Язык : Russian
Default : Нет
Forced : Нет
Аудио #5
Идентификатор : 6
Формат : E-AC-3
Формат/Информация : Audio Coding 3
Параметр Endianness формата : Big
Идентификатор кодека : A_EAC3
Продолжительность : 1 ч. 36 м.
Вид битрейта : Постоянный
Битрейт : 640 Кбит/сек
Каналы : 6 каналов
Расположение каналов : Front: L C R, Side: L R, LFE
Частота : 48,0 КГц
Метод сжатия : С потерями
Размер потока : 441 Мбайт (6%)
Заголовок : E-AC3 5.1 640Kbps (Оригинал - Amazon)
Язык : English
Default : Нет
Forced : Нет
Текст #1
Идентификатор : 7
Формат : UTF-8
Идентификатор кодека : S_TEXT/UTF8
Идентификатор кодека/Информация : UTF-8 Plain Text
Заголовок : Надписи и пр.
Язык : Russian
Default : Да
Forced : Нет
Текст #2
Идентификатор : 8
Формат : UTF-8
Идентификатор кодека : S_TEXT/UTF8
Идентификатор кодека/Информация : UTF-8 Plain Text
Заголовок : Полные
Язык : Russian
Default : Нет
Forced : Нет
Текст #3
Идентификатор : 9
Формат : UTF-8
Идентификатор кодека : S_TEXT/UTF8
Идентификатор кодека/Информация : UTF-8 Plain Text
Заголовок : Полные
Язык : English
Default : Нет
Forced : Нет
Текст #4
Идентификатор : 10
Формат : UTF-8
Идентификатор кодека : S_TEXT/UTF8
Идентификатор кодека/Информация : UTF-8 Plain Text
Заголовок : Полные, SDH
Язык : English
Default : Нет
Forced : Нет

Скриншоты

[Цитировать]



Показать сообщения:    

Текущее время: 20-Окт 11:31

Часовой пояс: UTC + 6


Вы не можете начинать темы
Вы не можете отвечать на сообщения
Вы не можете редактировать свои сообщения
Вы не можете удалять свои сообщения
Вы не можете голосовать в опросах
Вы не можете прикреплять файлы к сообщениям
Вы не можете скачивать файлы

!ВНИМАНИЕ!
Сайт не предоставляет электронные версии произведений, а занимается лишь коллекционированием и каталогизацией ссылок, присылаемых и публикуемых на форуме нашими читателями. Если вы являетесь правообладателем какого-либо представленного материала и не желаете, чтобы ссылка на него находилась в нашем каталоге, свяжитесь с нами, и мы незамедлительно удалим ее. Файлы для обмена на трекере предоставлены пользователями сайта, и администрация не несет ответственности за их содержание. Просьба не заливать файлы, защищенные авторскими правами, а также файлы нелегального содержания!