[ Сегодня идет свободное скачивание без начисления Download ]


Статистика раздачи
Скачал: [ 8 ]
 
   
 
 
 
 
Зверь / Beast (2017) BDRip 720p Информация о фильме
Название: Зверь
Оригинальное название: Beast
Год выхода: 2017
Жанр: Триллер
Режиссер: Майкл Пирс
В ролях: Джеральдин Джеймс, Джесси Бакли, Джонни Флинн, Хэтти Готобед, Чарли Палмер Ротуэлл, Шеннон Тарбет, Тристан Гравель, Эмили Тааффе, Тим Вудворд, Олуэн Фуэр
О фильме:
У Молл день рождения. Ей исполняется 27 лет, но праздник не делает её счастливой. Она живет с родителями на небольшом острове и буквально задыхается от непонимания и гнёта семейного круга. Молл встречает свою первую любовь в неспокойное время - по острову рыщет серийный убийца. Возникший из ниоткуда Паскаль становится для Молл воплощением свободы. С ним она впервые чувствует себя живой и избавляется от всех невидимых оков. Но счастье Молл не дает покоя её семье и жителям острова. Они подозревают Паскаля в причастности к этим зверским происшествиям. Молл приходится выбирать: быть вместе с Паскалем против всех или остаться на стороне большинства.

Страна: Великобритания
Студия: Agile Films,BFI Film Fund,British Film Institute
Продолжительность: 01:46:27
Перевод: Любительский (двухголосый закадровый) | HiWay Grope
Без рекламы.
Файл
Кодек: x264
Качество: BDRip 720p
Видео: MPEG-4 AVC, 4368 Kбит/с, 1280x536
Звук №1: Русский | AC3, 6 ch, 224 Кбит/с
Звук №2: Английский | DTS, 6 ch, 1536 Кбит/с
Субтитры: Английские

Скриншоты

Инфо-файл

Формат : Matroska
Версия формата : Version 2
Размер файла : 4,54 Гбайт
Продолжительность : 1 ч. 46 м.
Общий поток : 6100 Кбит/сек
Название фильма : Beast.2017.720p.BluRay.by.zzZGVvv
Дата кодирования : UTC 2018-08-22 19:24:17
Программа кодирования : mkvmerge v5.8.0 ('No Sleep / Pillow') built on Sep 2 2012 15:37:04
Библиотека кодирования : libebml v1.2.3 + libmatroska v1.3.0
Attachements : cover.jpg
Видео
Идентификатор : 1
Формат : AVC
Формат/Информация : Advanced Video Codec
Профиль формата : [email protected]
Параметр CABAC формата : Да
Параметр ReFrames формата : 5 кадров
Идентификатор кодека : V_MPEG4/ISO/AVC
Продолжительность : 1 ч. 46 м.
Битрейт : 4368 Кбит/сек
Ширина : 1280 пикселей
Высота : 536 пикселей
Соотношение сторон : 2,40:1
Режим частоты кадров : Постоянный
Частота кадров : 24,000 кадра/сек
Цветовое пространство : YUV
Субдискретизация насыщенности : 4:2:0
Битовая глубина : 8 бит
Тип развёртки : Прогрессивная
Бит/(Пиксели*Кадры) : 0.265
Размер потока : 3,16 Гбайт (70%)
Библиотека кодирования : x264 core 157 r2932 303c484
Настройки программы : cabac=1 / ref=5 / deblock=1:-3:-3 / analyse=0x3:0x113 / me=umh / subme=8 / psy=1 / psy_rd=1.00:0.00 / mixed_ref=1 / me_range=24 / chroma_me=1 / trellis=2 / 8x8dct=1 / cqm=0 / deadzone=21,11 / fast_pskip=1 / chroma_qp_offset=-2 / threads=17 / lookahead_threads=2 / sliced_threads=0 / nr=0 / decimate=1 / interlaced=0 / bluray_compat=0 / constrained_intra=0 / bframes=3 / b_pyramid=2 / b_adapt=2 / b_bias=0 / direct=3 / weightb=1 / open_gop=0 / weightp=2 / keyint=240 / keyint_min=24 / scenecut=40 / intra_refresh=0 / rc_lookahead=50 / rc=2pass / mbtree=1 / bitrate=4368 / ratetol=1.0 / qcomp=0.60 / qpmin=0 / qpmax=69 / qpstep=4 / cplxblur=20.0 / qblur=0.5 / ip_ratio=1.40 / aq=3:0.80
Язык : English
Default : Да
Forced : Нет
Аудио #1
Идентификатор : 2
Формат : AC-3
Формат/Информация : Audio Coding 3
Расширение режима : CM (complete main)
Параметр Endianness формата : Big
Идентификатор кодека : A_AC3
Продолжительность : 1 ч. 46 м.
Вид битрейта : Постоянный
Битрейт : 224 Кбит/сек
Каналы : 6 каналов
Расположение каналов : Front: L C R, Side: L R, LFE
Частота : 48,0 КГц
Метод сжатия : С потерями
Размер потока : 171 Мбайт (4%)
Язык : Russian
Default : Да
Forced : Нет
Аудио #2
Идентификатор : 3
Формат : DTS
Формат/Информация : Digital Theater Systems
Режим : 16
Параметр Endianness формата : Big
Идентификатор кодека : A_DTS
Продолжительность : 1 ч. 46 м.
Вид битрейта : Постоянный
Битрейт : 1509 Кбит/сек
Каналы : 6 каналов
Расположение каналов : Front: L C R, Side: L R, LFE
Частота : 48,0 КГц
Битовая глубина : 24 бит
Метод сжатия : С потерями
Размер потока : 1,12 Гбайт (25%)
Язык : English
Default : Нет
Forced : Нет
Текст #1
Идентификатор : 4
Формат : UTF-8
Идентификатор кодека : S_TEXT/UTF8
Идентификатор кодека/Информация : UTF-8 Plain Text
Язык : English
Default : Нет
Forced : Нет
Текст #2
Идентификатор : 5
Формат : UTF-8
Идентификатор кодека : S_TEXT/UTF8
Идентификатор кодека/Информация : UTF-8 Plain Text
Заголовок : SDH
Язык : English
Default : Нет
Forced : Нет
Меню
00:00:00.000 : en:00:00:00.000
00:08:41.196 : en:00:08:41.167
00:16:07.279 : en:00:16:07.250
00:24:37.029 : en:00:24:37.000
00:37:32.404 : en:00:37:32.375
00:10:00.029 : en:00:10:00.000
00:46:44.354 : en:00:46:44.292
00:54:55.312 : en:00:54:55.250
01:00:50.854 : en:01:00:50.792
01:10:41.812 : en:01:10:41.750
01:20:30.687 : en:01:20:30.625
01:30:33.645 : en:01:30:33.583
01:43:00.385 : en:01:43:00.292

[Цитировать]



Показать сообщения:    

Текущее время: 20-Окт 11:32

Часовой пояс: UTC + 6


Вы не можете начинать темы
Вы не можете отвечать на сообщения
Вы не можете редактировать свои сообщения
Вы не можете удалять свои сообщения
Вы не можете голосовать в опросах
Вы не можете прикреплять файлы к сообщениям
Вы не можете скачивать файлы

!ВНИМАНИЕ!
Сайт не предоставляет электронные версии произведений, а занимается лишь коллекционированием и каталогизацией ссылок, присылаемых и публикуемых на форуме нашими читателями. Если вы являетесь правообладателем какого-либо представленного материала и не желаете, чтобы ссылка на него находилась в нашем каталоге, свяжитесь с нами, и мы незамедлительно удалим ее. Файлы для обмена на трекере предоставлены пользователями сайта, и администрация не несет ответственности за их содержание. Просьба не заливать файлы, защищенные авторскими правами, а также файлы нелегального содержания!