[ Сегодня идет свободное скачивание без начисления Download ]


Статистика раздачи
Скачал: [ 5 ]
 
   
 
 
 
 
Единственный живой парень в Нью-Йорке / The Only Living Boy in New York (2017) WEB-DL 1080p Информация о фильме
Название: Единственный живой парень в Нью-Йорке
Оригинальное название: The Only Living Boy in New York
Год выхода: 2017
Жанр: драма, мелодрама
Режиссер: Марк Уэбб
В ролях: Кейт Бекинсейл, Каллум Тернер, Джефф Бриджес, Пирс Броснан, Синтия Никсон, Кирси Клемонс, Тейт Донован, Уоллес Шоун, Ан Дуонг, Деби Мейзар и др.
О фильме:
Парень узнает, что его отец ходит на сторону. Он пытается это прекратить, но сам попадает в сети любовницы. Теперь, иcпользуя «полезные» советы соседей, он попытается завоевать ее сердце. Непростые отношения в благополучной на первый взгляд семье, тайные страсти и зловещие секреты...

Страна: США
Студия: Big Indie Pictures, Amazon Studios, Bona Fide Productions
Продолжительность: 01:28:22
Перевод: Любительский (многоголосый закадровый) [HDrezka Studio]
Файл
Кодек: x.264
Качество: WEB-DL 1080p
Видео: MPEG-4 AVC, 1920x1040, 8215 Кбит/с, 23.976 кадр/с
Звук:
Аудио #1: Русский ( АС3, 2ch, 192 Кбит/с, 48.0 KHz) Любительский (многоголосый закадровый) [HDrezka Studio]
Аудио #2: Английский ( AC3, 6ch, 448 Кбит/с, 48.0 KHz)
Субтитры: английские
Рекламы НЕТ
Трейлер

MediaInfo

Источник: The.Only.Living.Boy.in.New.York.2017.1080p.AMZN.WEBRip.DDP5.1.x264-SiGMA
General
Unique ID : 172748616814460214324988704422043203594 (0x81F62C63C66174D88A686C7FE80E380A)
Complete name : The.Only.Living.Boy.in.New.York.2017.WEB-DL.1080p.mkv
Format : Matroska
Format version : Version 4 / Version 2
File size : 5.47 GiB
Duration : 1 h 28 min
Overall bit rate mode : Variable
Overall bit rate : 8 858 kb/s
Encoded date : UTC 2018-03-19 14:01:12
Writing application : mkvmerge v7.1.0 ('Good Love') 64bit built on Jul 27 2014 13:06:55
Writing library : libebml v1.3.0 + libmatroska v1.4.1
Video
ID : 1
Format : AVC
Format/Info : Advanced Video Codec
Format profile : [email protected]
Format settings : CABAC / 4 Ref Frames
Format settings, CABAC : Yes
Format settings, ReFrames : 4 frames
Codec ID : V_MPEG4/ISO/AVC
Duration : 1 h 28 min
Bit rate mode : Variable
Bit rate : 8 215 kb/s
Maximum bit rate : 15.0 Mb/s
Width : 1 920 pixels
Height : 1 040 pixels
Display aspect ratio : 1.85:1
Frame rate mode : Constant
Frame rate : 23.976 (24000/1001) FPS
Color space : YUV
Chroma subsampling : 4:2:0
Bit depth : 8 bits
Scan type : Progressive
Bits/(Pixel*Frame) : 0.172
Stream size : 5.07 GiB (93%)
Language : English
Default : Yes
Forced : No
Color range : Limited
Color primaries : BT.709
Transfer characteristics : BT.709
Matrix coefficients : BT.709
Audio #1
ID : 2
Format : AC-3
Format/Info : Audio Coding 3
Codec ID : A_AC3
Duration : 1 h 28 min
Bit rate mode : Constant
Bit rate : 192 kb/s
Channel(s) : 2 channels
Channel positions : Front: L R
Sampling rate : 48.0 kHz
Frame rate : 31.250 FPS (1536 SPF)
Bit depth : 16 bits
Compression mode : Lossy
Stream size : 121 MiB (2%)
Language : Russian
Service kind : Complete Main
Default : Yes
Forced : No
Audio #2
ID : 3
Format : AC-3
Format/Info : Audio Coding 3
Codec ID : A_AC3
Duration : 1 h 28 min
Bit rate mode : Constant
Bit rate : 448 kb/s
Channel(s) : 6 channels
Channel positions : Front: L C R, Side: L R, LFE
Sampling rate : 48.0 kHz
Frame rate : 31.250 FPS (1536 SPF)
Bit depth : 16 bits
Compression mode : Lossy
Stream size : 283 MiB (5%)
Language : English
Service kind : Complete Main
Default : No
Forced : No
Text
ID : 4
Format : UTF-8
Codec ID : S_TEXT/UTF8
Codec ID/Info : UTF-8 Plain Text
Duration : 1 h 27 min
Bit rate : 64 b/s
Count of elements : 1506
Stream size : 41.1 KiB (0%)
Language : English
Default : No
Forced : No

Скриншоты

[Цитировать]

Фильм на троечку.

[Цитировать]



Показать сообщения:    

Текущее время: 16-Окт 19:29

Часовой пояс: UTC + 6


Вы не можете начинать темы
Вы не можете отвечать на сообщения
Вы не можете редактировать свои сообщения
Вы не можете удалять свои сообщения
Вы не можете голосовать в опросах
Вы не можете прикреплять файлы к сообщениям
Вы не можете скачивать файлы

!ВНИМАНИЕ!
Сайт не предоставляет электронные версии произведений, а занимается лишь коллекционированием и каталогизацией ссылок, присылаемых и публикуемых на форуме нашими читателями. Если вы являетесь правообладателем какого-либо представленного материала и не желаете, чтобы ссылка на него находилась в нашем каталоге, свяжитесь с нами, и мы незамедлительно удалим ее. Файлы для обмена на трекере предоставлены пользователями сайта, и администрация не несет ответственности за их содержание. Просьба не заливать файлы, защищенные авторскими правами, а также файлы нелегального содержания!