[ Сегодня идет свободное скачивание без начисления Download ]


Статистика раздачи
Качаю: [ 2 ]
Скачал: [ 7 ]
 
   
 
 
 
 
С Богами: Два мира
Singwa Hamgge (Along with the Gods: The Two Worlds)
- Информация
Производство: Корея Южная, Dexter Studios
Жанр: Драма, Фэнтези, Приключения
Режиссер: Ён Хва Ким
Актеры: Чон У Ха, Тхэ Хён Чха, Джи Хун Чжу, Хян Ги Ким, Дон Ук Ким, Кён Су До, Чжун Хёк Ли (I), Су Чжон Е, Ю Бин Сон, Чжон Чжэ Ли, Даль Су О, Вон Хи Им
Описание:
Спасая ребёнка из горящего здания, пожарный Ким Джа-хон погибает героической смертью. И тут же три ангела смерти сопровождают его в мир мёртвых, где смертному предстоит пройти 7 судов и держать ответ перед 7-ю Богами. Ангелы будут его защитниками, и если Джа-хона признают безгрешным, он получит возможность реинкарнироваться и начать новую жизнь.


Дата мировой премьеры: 20 декабря 2017
Продолжительность: 02:19:58
Перевод: Двуголосый закадровый, любительский
Озвучка / Автор перевода: Ворон и Wenlana / "Zipper"
Файл
Качество видео: BDRip (MTeam) Сэмпл
Видео: AVC/H.264, 1920x804, ~ 11.6 Mbps, 24.000 fps
Аудио 1: AC3, 6 ch, 224 kbps | Русский
Аудио 2: AC3, 6 ch, 640 kbps | Корейский
Субтитры: Русский (форс., полные)

Mediainfo:

Общее
Полное имя : \С Богами-Два мира_Along with the Gods-The Two Worlds.2017.BDRip.1080p.NNMClub.mkv
Формат : Matroska
Версия формата : Version 4 / Version 2
Размер файла : 12,2 Гбайт
Продолжительность : 2 ч. 19 м.
Общий поток : 12,5 Мбит/сек
Название фильма : С Богами-Два мира_Along with the Gods-The Two Worlds.2017.BDRip.1080p.NNMClub
Дата кодирования : UTC 2018-03-30 11:36:16
Программа кодирования : mkvmerge v21.0.0 ('Tardigrades Will Inherit The Earth') 64-bit
Библиотека кодирования : libebml v1.3.5 + libmatroska v1.4.8
Видео
Идентификатор : 1
Формат : AVC
Формат/Информация : Advanced Video Codec
Профиль формата : [email protected]
Настройки формата : CABAC / 5 Ref Frames
Параметр CABAC формата : Да
Параметр RefFrames формата : 5 кадров
Идентификатор кодека : V_MPEG4/ISO/AVC
Продолжительность : 2 ч. 19 м.
Битрейт : 11,6 Мбит/сек
Ширина : 1920 пикселей
Высота : 804 пикселя
Соотношение сторон : 2,40:1
Режим частоты кадров : Постоянный
Частота кадров : 24,000 кадра/сек
Цветовое пространство : YUV
Субдискретизация насыщенности : 4:2:0
Битовая глубина : 8 бит
Тип развёртки : Прогрессивная
Бит/(Пиксели*Кадры) : 0.314
Размер потока : 11,3 Гбайт (93%)
Заголовок : С Богами-Два мира_Along with the Gods-The Two Worlds.2017.BDRip.1080p.NNMClub
Библиотека кодирования : x264 core 155 r2901 7d0ff22
Настройки программы : cabac=1 / ref=5 / deblock=1:-3:-3 / analyse=0x3:0x133 / me=umh / subme=10 / psy=1 / psy_rd=1.05:0.00 / mixed_ref=1 / me_range=32 / chroma_me=1 / trellis=2 / 8x8dct=1 / cqm=0 / deadzone=21,11 / fast_pskip=0 / chroma_qp_offset=-2 / threads=12 / lookahead_threads=2 / sliced_threads=0 / nr=0 / decimate=0 / interlaced=0 / bluray_compat=0 / constrained_intra=0 / bframes=9 / b_pyramid=2 / b_adapt=2 / b_bias=0 / direct=3 / weightb=1 / open_gop=0 / weightp=2 / keyint=250 / keyint_min=24 / scenecut=40 / intra_refresh=0 / rc_lookahead=250 / rc=crf / mbtree=0 / crf=15.8 / qcomp=0.60 / qpmin=0 / qpmax=69 / qpstep=4 / vbv_maxrate=62500 / vbv_bufsize=78125 / crf_max=0.0 / nal_hrd=none / filler=0 / ip_ratio=1.30 / pb_ratio=1.20 / aq=3:0.80
Язык : Korean
Default : Да
Forced : Нет
Цветовой диапазон : Limited
Основные цвета : BT.709
Коэффициенты матрицы : BT.709
Аудио #1
Идентификатор : 2
Формат : AC-3
Формат/Информация : Audio Coding 3
Идентификатор кодека : A_AC3
Продолжительность : 2 ч. 19 м.
Вид битрейта : Постоянный
Битрейт : 224 Кбит/сек
Каналы : 2 канала
Расположение каналов : Front: L R
Частота : 48,0 КГц
Частота кадров : 31,250 кадров/сек (1536 SPF)
Битовая глубина : 16 бит
Метод сжатия : С потерями
Размер потока : 224 Мбайт (2%)
Заголовок : DVO [Ворон и Wenlana]
Язык : Russian
ServiceKind/String : Complete Main
Default : Нет
Forced : Нет
Аудио #2
Идентификатор : 3
Формат : AC-3
Формат/Информация : Audio Coding 3
Идентификатор кодека : A_AC3
Продолжительность : 2 ч. 19 м.
Вид битрейта : Постоянный
Битрейт : 640 Кбит/сек
Каналы : 6 каналов
Расположение каналов : Front: L C R, Side: L R, LFE
Частота : 48,0 КГц
Частота кадров : 31,250 кадров/сек (1536 SPF)
Битовая глубина : 16 бит
Метод сжатия : С потерями
Размер потока : 641 Мбайт (5%)
Язык : Korean
ServiceKind/String : Complete Main
Default : Нет
Forced : Нет
Текст #1
Идентификатор : 4
Формат : UTF-8
Идентификатор кодека : S_TEXT/UTF8
Идентификатор кодека/Информация : UTF-8 Plain Text
Продолжительность : 2 ч. 11 м.
Битрейт : 1 бит/сек
ElementCount : 38
Размер потока : 1,61 Кбайт (0%)
Язык : Russian
Default : Да
Forced : Нет
Текст #2
Идентификатор : 5
Формат : UTF-8
Идентификатор кодека : S_TEXT/UTF8
Идентификатор кодека/Информация : UTF-8 Plain Text
Продолжительность : 2 ч. 12 м.
Битрейт : 79 бит/сек
ElementCount : 1483
Размер потока : 76,6 Кбайт (0%)
Язык : Russian
Default : Нет
Forced : Нет
Меню
00:00:00.000 : ko:Chapter 01
00:08:21.416 : ko:Chapter 02
00:21:58.208 : ko:Chapter 03
00:37:18.875 : ko:Chapter 04
00:49:27.083 : ko:Chapter 05
01:03:01.041 : ko:Chapter 06
01:18:03.375 : ko:Chapter 07
01:34:49.041 : ko:Chapter 08
01:45:32.916 : ko:Chapter 09
01:58:46.750 : ko:Chapter 10

Скриншоты

Скриншоты:

[Цитировать]



Показать сообщения:    

Текущее время: 20-Окт 11:33

Часовой пояс: UTC + 6


Вы не можете начинать темы
Вы не можете отвечать на сообщения
Вы не можете редактировать свои сообщения
Вы не можете удалять свои сообщения
Вы не можете голосовать в опросах
Вы не можете прикреплять файлы к сообщениям
Вы не можете скачивать файлы

!ВНИМАНИЕ!
Сайт не предоставляет электронные версии произведений, а занимается лишь коллекционированием и каталогизацией ссылок, присылаемых и публикуемых на форуме нашими читателями. Если вы являетесь правообладателем какого-либо представленного материала и не желаете, чтобы ссылка на него находилась в нашем каталоге, свяжитесь с нами, и мы незамедлительно удалим ее. Файлы для обмена на трекере предоставлены пользователями сайта, и администрация не несет ответственности за их содержание. Просьба не заливать файлы, защищенные авторскими правами, а также файлы нелегального содержания!