[ Сегодня идет свободное скачивание без начисления Download ]


Статистика раздачи
Скачал: [ 3 ]
 
   
 
 
 
 
Муза / Muse (2017) BDRip 1080p Производство: Испания, Ирландия, Бельгия, Франция / Castelao Pictures, Fantastic Films, Filmax Entertainment, Frakas Productions
Жанр: Ужасы, Фантастика, Триллер
Режиссер: Жауме Балагуэро
Продюсер: Карлос Фернандес, Брендан Маккарти, Джон МакДоннел
Актеры: Эллиот Кауэн, Франка Потенте, Ана Улару, Леонор Уотлинг, Мануэла Вельес, Джоанн Уолли, Кристофер Ллойд, Стелла МакКаскер
Описание:
Профессор литературы Самуэль Саломон год назад ушел с работы после трагической смерти подруги. Он страдает от повторяющегося ночного кошмара, в котором видит женщину, зверски убиваемую при странном ритуале. Неожиданно ту же самую женщину, которая появляется каждую ночь в его снах, находят мертвой при тех же самых обстоятельствах. Самуэль пробирается на место преступления и там встречает Рэйчел, которой тоже приснилось это убийство. Пытаясь сделать всё возможное, чтобы разгадать личность таинственной женщины, они попадут в страшный мир, которым управляют фигуры, вдохновляющие художников на протяжении веков — музы.

Продолжительность: 01:47:30
Качество видео: BDRip (1080p)Сэмпл
Перевод: Любительский (многоголосый закадровый) («Синема УС»)
Субтитры: отсутствуют
Реклама: отсутствует
Видео: AVC/H.264, 1920x804 (2.40:1), ~5628 kbps, 24 fps
Аудио: AC3, 2 ch, 48.0 KHz, 192 kbps

Mediainfo:

General
Unique ID : 193931964204789545300141935021522122578 (0x91E5F00D5791A714B9ADFD5E9BD37752)
Complete name : E:Мои рипыМуза.2017.BDRip.1080p.MVO.mkv
Format : Matroska
Format version : Version 4 / Version 2
File size : 4.37 GiB
Duration : 1h 47mn
Overall bit rate : 5 820 Kbps
Movie name : Muse.2017.1080p.BluRay.REMUX.AVC.DTS-HD.MA.5.1-FGT
Encoded date : UTC 2018-03-31 07:41:23
Writing application : mkvmerge v6.8.0 ('Theme for Great Cities') 64bit built on Mar 2 2014 21:34:26
Writing library : libebml v1.3.0 + libmatroska v1.4.1
Video
ID : 1
Format : AVC
Format/Info : Advanced Video Codec
Format profile : [email protected]
Format settings, CABAC : Yes
Format settings, ReFrames : 5 frames
Codec ID : V_MPEG4/ISO/AVC
Duration : 1h 47mn
Bit rate : 5 628 Kbps
Width : 1 920 pixels
Height : 804 pixels
Display aspect ratio : 2.40:1
Frame rate mode : Constant
Frame rate : 24.000 fps
Color space : YUV
Chroma subsampling : 4:2:0
Bit depth : 8 bits
Scan type : Progressive
Bits/(Pixel*Frame) : 0.152
Stream size : 4.14 GiB (95%)
Writing library : x264 core 146 r2538 121396c
Encoding settings : cabac=1 / ref=5 / deblock=1:-3:-3 / analyse=0x3:0x113 / me=umh / subme=11 / psy=1 / psy_rd=1.00:0.15 / mixed_ref=1 / me_range=48 / chroma_me=1 / trellis=2 / 8x8dct=1 / cqm=0 / deadzone=21,11 / fast_pskip=0 / chroma_qp_offset=-4 / threads=6 / lookahead_threads=1 / sliced_threads=0 / nr=0 / decimate=0 / interlaced=0 / bluray_compat=0 / constrained_intra=0 / bframes=8 / b_pyramid=2 / b_adapt=2 / b_bias=0 / direct=2 / weightb=1 / open_gop=0 / weightp=2 / keyint=250 / keyint_min=24 / scenecut=40 / intra_refresh=0 / rc_lookahead=50 / rc=2pass / mbtree=0 / bitrate=5628 / ratetol=1.0 / qcomp=0.60 / qpmin=0 / qpmax=69 / qpstep=4 / cplxblur=20.0 / qblur=0.5 / vbv_maxrate=14000 / vbv_bufsize=14000 / nal_hrd=none / filler=0 / ip_ratio=1.40 / pb_ratio=1.30 / aq=2:1.00
Language : English
Default : Yes
Forced : No
Color primaries : Generic film
Matrix coefficients : YCgCo
Audio
ID : 2
Format : AC-3
Format/Info : Audio Coding 3
Mode extension : CM (complete main)
Format settings, Endianness : Big
Codec ID : A_AC3
Duration : 1h 47mn
Bit rate mode : Constant
Bit rate : 192 Kbps
Channel(s) : 2 channels
Channel positions : Front: L R
Sampling rate : 48.0 KHz
Bit depth : 16 bits
Compression mode : Lossy
Stream size : 148 MiB (3%)
Title : MVO «Синема УС»
Language : Russian
Default : Yes
Forced : No
Menu
00:00:00.000 : en:Chapter 01
00:14:04.000 : en:Chapter 02
00:25:49.500 : en:Chapter 03
00:39:30.208 : en:Chapter 04
00:52:09.291 : en:Chapter 05
01:04:45.125 : en:Chapter 06
01:18:07.916 : en:Chapter 07
01:27:42.375 : en:Chapter 08

Дополнительная информация:

Релиз без рекламы с максимально отреставрированным звуком.
Скриншоты:

[Цитировать]



Показать сообщения:    

Текущее время: 20-Окт 00:56

Часовой пояс: UTC + 6


Вы не можете начинать темы
Вы не можете отвечать на сообщения
Вы не можете редактировать свои сообщения
Вы не можете удалять свои сообщения
Вы не можете голосовать в опросах
Вы не можете прикреплять файлы к сообщениям
Вы не можете скачивать файлы

!ВНИМАНИЕ!
Сайт не предоставляет электронные версии произведений, а занимается лишь коллекционированием и каталогизацией ссылок, присылаемых и публикуемых на форуме нашими читателями. Если вы являетесь правообладателем какого-либо представленного материала и не желаете, чтобы ссылка на него находилась в нашем каталоге, свяжитесь с нами, и мы незамедлительно удалим ее. Файлы для обмена на трекере предоставлены пользователями сайта, и администрация не несет ответственности за их содержание. Просьба не заливать файлы, защищенные авторскими правами, а также файлы нелегального содержания!