[ Сегодня идет свободное скачивание без начисления Download ]


Статистика раздачи
Скачал: [ 2 ]
 
   
 
 
 
 
Всегда возвращается / Vuelven Информация о фильме
Название: Всегда возвращается
Оригинальное название: Vuelven
Производство: Мексика
Год выхода: 2017
Жанр: ужасы, фэнтези, криминал
Режиссер: Исса Лопес
В ролях: Паола Лара, Анссель Касильяс, Родриго Кортес, Янис Герреро Теноч Уэрта,Хуан Рамон Лопес
О фильме:
Темная сказка о банде пятерых детей, пытающихся выжить в городе, полном насилия.В их руки случайно попадает телефон, где записаны убийства похищенных людей и за ними начинают охоту мафиози.
У одного из подростков, девочке Эстреллы, есть 3 желания.Но после того как ее пропавшая мать вернулась мертвой, девочка понимает, что когда находишься в центре жестокости и насилия, желания никогда не сбываются так, как вы хотите.

Страна: Мексика
Продолжительность: 01:23:00
Перевод: Любительский (одноголосый) Хихикающий доктор
Файл
Формат: Matroska
Качество: WEBRip 720p
Видео: 1280x534 (2.40:1), 29,970 fps, [email protected] ~3000 kbps avg, 0.146 bit/pixel
Звук: 4.100 kHz, MPEG Layer 3, 2 ch, ~192.00 kbps avg
Трейлер
Небольшая реклама в титрах

MI

Общее
Complete name : C:Usersdok1DownloadsVUELVENVuelven.m720p.www.bloghorror.com.mkv
Format : Matroska
Format version : Version 4 / Version 2
File size : 2.01 GiB
Duration : 1h 23mn
Overall bit rate : 3 449 Kbps
Movie name : www.DESCARGASMIX.com
Encoded date : UTC 2018-03-06T14:09:13Z
Writing application : HandBrake 1.0.7 2017040900
Writing library : Lavf57.7.2
Video
ID : 1
Format : AVC
Format/Info : Advanced Video Codec
Format profile : [email protected]
Format settings, CABAC : Yes
Format settings, ReFrames : 4 frames
Codec ID : V_MPEG4/ISO/AVC
Duration : 1h 23mn
Bit rate : 3 000 Kbps
Width : 1 280 pixels
Height : 534 pixels
Display aspect ratio : 2.40:1
Frame rate mode : Constant
Frame rate : 29.970 fps
Color space : YUV
Chroma subsampling : 4:2:0
Bit depth : 8 bits
Scan type : Progressive
Bits/(Pixel*Frame) : 0.146
Stream size : 1.71 GiB (85%)
Writing library : x264 core 148 r2708 86b7198
Encoding settings : cabac=1 / ref=2 / deblock=1:0:0 / analyse=0x3:0x113 / me=hex / subme=6 / psy=1 / psy_rd=1.00:0.00 / mixed_ref=1 / me_range=16 / chroma_me=1 / trellis=1 / 8x8dct=1 / cqm=0 / deadzone=21,11 / fast_pskip=1 / chroma_qp_offset=-2 / threads=17 / lookahead_threads=2 / sliced_threads=0 / nr=0 / decimate=1 / interlaced=0 / bluray_compat=0 / constrained_intra=0 / bframes=3 / b_pyramid=2 / b_adapt=1 / b_bias=0 / direct=1 / weightb=1 / open_gop=0 / weightp=1 / keyint=300 / keyint_min=30 / scenecut=40 / intra_refresh=0 / rc_lookahead=30 / rc=2pass / mbtree=1 / bitrate=3000 / ratetol=1.0 / qcomp=0.60 / qpmin=0 / qpmax=69 / qpstep=4 / cplxblur=20.0 / qblur=0.5 / vbv_maxrate=62500 / vbv_bufsize=78125 / nal_hrd=none / filler=0 / ip_ratio=1.40 / aq=1:1.00
Default : Yes
Forced : No
Color primaries : BT.709
Transfer characteristics : BT.709
Matrix coefficients : BT.709
Audio
ID : 2
Format : MPEG Audio
Format version : Version 1
Format profile : Layer 3
Codec ID : A_MPEG/L3
Codec ID/Hint : MP3
Duration : 1h 23mn
Bit rate mode : Constant
Bit rate : 192 Kbps
Channel(s) : 2 channels
Sampling rate : 44.1 KHz
Compression mode : Lossy
Stream size : 115 MiB (11%)
Default : Yes
Forced : No

Скриншоты

[Цитировать]

Топик был перенесен из форума Новинки кинопроката 2017 в форум Новинки кинопроката 2017 (HD Video)
Viktor1952



Показать сообщения:    

Текущее время: 16-Окт 19:27

Часовой пояс: UTC + 6


Вы не можете начинать темы
Вы не можете отвечать на сообщения
Вы не можете редактировать свои сообщения
Вы не можете удалять свои сообщения
Вы не можете голосовать в опросах
Вы не можете прикреплять файлы к сообщениям
Вы не можете скачивать файлы

!ВНИМАНИЕ!
Сайт не предоставляет электронные версии произведений, а занимается лишь коллекционированием и каталогизацией ссылок, присылаемых и публикуемых на форуме нашими читателями. Если вы являетесь правообладателем какого-либо представленного материала и не желаете, чтобы ссылка на него находилась в нашем каталоге, свяжитесь с нами, и мы незамедлительно удалим ее. Файлы для обмена на трекере предоставлены пользователями сайта, и администрация не несет ответственности за их содержание. Просьба не заливать файлы, защищенные авторскими правами, а также файлы нелегального содержания!