[ Сегодня идет свободное скачивание без начисления Download ]


Статистика раздачи
Скачал: [ 1 ]
 
   
 
 
 
 
Мама и папа / Mom and Dad (2017) HDRip 1080p Информация о фильме
Год выхода: 2017
Наименование: Мама и папа
Оригинальное наименование: Mom and Dad
Произведено: США
Жанр: ужасы, триллер, комедия
Режиссер постановщик: Брайан Тейлор
В главных ролях: Николас Кейдж, Сэльма Блэр, Лэнс Хенриксен, Энн Уинтерс, Рэйчел Мелвин, Джозеф Д. Рейтман, Лорена Диас, Оливия Крочиккия, Закари Артур, Саманта Лемоул
О фильме: Со стороны семья Райан кажется идеальной - муж хорошо зарабатывает, красавица-жена, двое детей. Но проблемы есть в любой семье. Дочь-старшеклассница перестала общаться с матерью и таскает у неё деньги из кошелька. Младший брат постоянно задирает сестру, родители тоже с трудом находят общий язык. Внезапно по телевизору начинают передавать странный сигнал, и все услышавшие его родители нападают на собственных детей. Самое время для супругов Райан начать работать в команде и выяснить отношения всем семейством.

Файл
Качество: HDRip 1080p
Видео данные: MKV, 1920x810 (2.40:1), 23.976 fps, 9459 Кбит/с
Аудио данные: AC3, 2 ch, 192 Кбит/с
Перевод: Любительский многоголосый (GreenРай Studio)
Продолжительность: 01:23:25

Медиаинфо

General
Unique ID : 209662852373369834386754192638945186083 (0x9DBB98B83B4B1265C4195A835392D123)
Complete name : D:ГРИНРАЙMom.and.Dad.2017.P.BDRip.1080p.mkv
Format : Matroska
Format version : Version 4 / Version 2
File size : 5.62 GiB
Duration : 1 h 23 min
Overall bit rate : 9 652 kb/s
Encoded date : UTC 2018-04-08 14:29:57
Writing application : mkvmerge v21.0.0 ('Tardigrades Will Inherit The Earth') 64-bit
Writing library : libebml v1.3.5 + libmatroska v1.4.8
Video
ID : 1
Format : AVC
Format/Info : Advanced Video Codec
Format profile : [email protected]
Format settings : CABAC / 1 Ref Frames
Format settings, CABAC : Yes
Format settings, RefFrames : 1 frame
Format settings, GOP : M=1, N=30
Codec ID : V_MPEG4/ISO/AVC
Duration : 1 h 23 min
Bit rate : 9 459 kb/s
Width : 1 920 pixels
Height : 810 pixels
Display aspect ratio : 2.40:1
Frame rate mode : Constant
Frame rate : 23.976 (24000/1001) FPS
Color space : YUV
Chroma subsampling : 4:2:0
Bit depth : 8 bits
Scan type : Progressive
Bits/(Pixel*Frame) : 0.254
Stream size : 5.51 GiB (98%)
Language : English
Default : Yes
Forced : No
Audio
ID : 2
Format : AAC
Format/Info : Advanced Audio Codec
Format profile : LC
Codec ID : A_AAC-2
Duration : 1 h 23 min
Bit rate : 192 kb/s
Channel(s) : 2 channels
Channel positions : Front: L R
Sampling rate : 48.0 kHz
Frame rate : 46.875 FPS (1024 SPF)
Compression mode : Lossy
Stream size : 113 MiB (2%)
Language : English
Default : Yes
Forced : No
Внимание, имеется видео и аудио реклама от спонсора показа

Скриншоты

[Цитировать]



Показать сообщения:    

Текущее время: 20-Окт 11:30

Часовой пояс: UTC + 6


Вы не можете начинать темы
Вы не можете отвечать на сообщения
Вы не можете редактировать свои сообщения
Вы не можете удалять свои сообщения
Вы не можете голосовать в опросах
Вы не можете прикреплять файлы к сообщениям
Вы не можете скачивать файлы

!ВНИМАНИЕ!
Сайт не предоставляет электронные версии произведений, а занимается лишь коллекционированием и каталогизацией ссылок, присылаемых и публикуемых на форуме нашими читателями. Если вы являетесь правообладателем какого-либо представленного материала и не желаете, чтобы ссылка на него находилась в нашем каталоге, свяжитесь с нами, и мы незамедлительно удалим ее. Файлы для обмена на трекере предоставлены пользователями сайта, и администрация не несет ответственности за их содержание. Просьба не заливать файлы, защищенные авторскими правами, а также файлы нелегального содержания!