[ Сегодня идет свободное скачивание без начисления Download ]


Статистика раздачи
Скачал: [ 4 ]
 
   
 
 
 
 
Сломанный ключ / The Broken Key (2017) WEBRip 720p Информация о фильме
Название: Сломанный ключ
Оригинальное название: The Broken Key
Год выхода: 2017
Жанр: Фантастика, триллер, история
Режиссер: Луис Неро
В ролях: Майкл Мэдсен, Франко Неро, Рутгер Хауэр, Кристофер Ламберт, Мария ди Медейруш, Кабир Беди, Уильям Болдуин, Джеральдина Чаплин, Марко Фьорини, Юн С. Джойс, Диана Дель’Эрба, Уолтер Липпа, Риккардо Мей, Линда Мессерклингер, Ариадна Ромеро, Морена Сальвино и другие
О фильме:
В недалёком будущем бумага становится дефицитом, а библиотеки превращаются в закрытые музеи, которые не каждому доступны. Печать здесь запрещена и информация поступает только на цифровые носители. В этом цифровом городе неожиданно происходит серия ритуальных убийств. Главный герой Адам попытается настигнуть убийцу, следуя подсказкам, которые он оставляет.

Страна: Италия, L'Altrofilm, Torino Film Production
Продолжительность: 02:05:31
Перевод: Любительский (двухголосый закадровый) | HiWay Grope
Файл
Кодек: MPEG-4 AVC/x.264
Качество: WEBRip 720p
Видео: 1280x536, 23.976 fps, ~2905 kbps, 0.177 bit/pixel
Звук:
Аудио rus: AC3, 48 kHz, 6 ch, 224 Kbps
Субтитры: отсутствуют
Реклама: присутствует
Семпл

MediaInfo:

General
Unique ID : 149412096505140421720299223514717368524 (0x7067B91B334223B71644083B218C30CC)
Complete name : E:The.Broken.Key.2017.720p.WEBRip.HiWayGropeThe.Broken.Key.2017.720p.WEBRip.HiWayGrope.mkv
Format : Matroska
Format version : Version 4 / Version 2
File size : 2.80 GiB
Duration : 2h 5mn
Overall bit rate : 3 192 Kbps
Encoded date : UTC 2018-05-28 16:01:35
Writing application : mkvmerge v21.0.0 ('Tardigrades Will Inherit The Earth') 64-bit
Writing library : libebml v1.3.5 + libmatroska v1.4.8
Video
ID : 1
Format : AVC
Format/Info : Advanced Video Codec
Format profile : [email protected]
Format settings, CABAC : Yes
Format settings, ReFrames : 4 frames
Codec ID : V_MPEG4/ISO/AVC
Duration : 2h 5mn
Bit rate : 2 905 Kbps
Width : 1 280 pixels
Height : 536 pixels
Display aspect ratio : 2.40:1
Frame rate mode : Constant
Frame rate : 23.976 (24000/1001) fps
Standard : NTSC
Color space : YUV
Chroma subsampling : 4:2:0
Bit depth : 8 bits
Scan type : Progressive
Bits/(Pixel*Frame) : 0.177
Stream size : 2.55 GiB (91%)
Language : English
Default : Yes
Forced : No
Color range : Limited
Color primaries : BT.601 NTSC
Transfer characteristics : BT.601
Matrix coefficients : BT.601
Audio
ID : 2
Format : AC-3
Format/Info : Audio Coding 3
Mode extension : CM (complete main)
Format settings, Endianness : Big
Codec ID : A_AC3
Duration : 2h 5mn
Bit rate mode : Constant
Bit rate : 224 Kbps
Channel(s) : 6 channels
Channel positions : Front: L C R, Side: L R, LFE
Sampling rate : 48.0 KHz
Frame rate : 31.250 fps (1536 spf)
Compression mode : Lossy
Stream size : 201 MiB (7%)
Title : rus
Language : Russian
Default : Yes
Forced : No

Скриншоты

[Цитировать]



Показать сообщения:    

Текущее время: 20-Окт 11:33

Часовой пояс: UTC + 6


Вы не можете начинать темы
Вы не можете отвечать на сообщения
Вы не можете редактировать свои сообщения
Вы не можете удалять свои сообщения
Вы не можете голосовать в опросах
Вы не можете прикреплять файлы к сообщениям
Вы не можете скачивать файлы

!ВНИМАНИЕ!
Сайт не предоставляет электронные версии произведений, а занимается лишь коллекционированием и каталогизацией ссылок, присылаемых и публикуемых на форуме нашими читателями. Если вы являетесь правообладателем какого-либо представленного материала и не желаете, чтобы ссылка на него находилась в нашем каталоге, свяжитесь с нами, и мы незамедлительно удалим ее. Файлы для обмена на трекере предоставлены пользователями сайта, и администрация не несет ответственности за их содержание. Просьба не заливать файлы, защищенные авторскими правами, а также файлы нелегального содержания!