[ Сегодня идет свободное скачивание без начисления Download ]


Статистика раздачи
Скачал: [ 2 ]
 
   
 
 
 
 
Доктор Стрэндж / Doctor Strange
«За гранью сознания лежит новая реальность»
Год выпуска: 2016
Страна: США
Производство: Marvel Studios Inc., Walt Disney Studios Motion Pictures
Жанр: Фантастика, фэнтези, боевик, приключения
Режиссёр: Скотт Дерриксон
В ролях: Бенедикт Камбербэтч, Тильда Суинтон, Мадс Миккельсен, Чиветел Эджиофор, Рэйчел МакАдамс, Бенедикт Вонг, Майкл Стулбарг, Бенджамин Брэтт, Скотт Эдкинс, Зара Питиан
Перевод: Профессиональный (полное дублирование) [iTunes] + Оригинал (Английский)
Субтитры: Русские, английские (вшитые, отключаемые / UTF-8)
Описание: Страшная автокатастрофа поставила крест на карьере успешного нейрохирурга Доктора Стрэнджа. Отчаявшись, он отправляется в путешествие в поисках исцеления и открывает в себе невероятные способности к трансформации пространства и времени. Теперь он — связующее звено между параллельными измерениями, а его миссия — защищать жителей Земли и противодействовать Злу, какое бы обличие оно ни принимало.

Качество: BDRip 1080p
Продолжительность: 01:54:58
Формат 3D: Anamorph SideBySide / Горизонтальная анаморфная стереопара
Порядок ракурсов: левый ракурс первый
Формат: MKV
Видео кодек: AVC
Аудио кодек: AС3, DTS
Видео: 1920x1016 (1.890), 23.976 fps, AVC ~ 9385 kbps avg, 0.201 bit/pixel
Аудио#1: AC3, 48 kHz, 6 ch, ~ 384 kbps avg (Rus)
Аудио#2: DTS, 48 kHz, 6 ch, ~ 1510 kbps avg (Eng)

MI

General
Unique ID                      : 229536404325782062872094701255984914996 (0xACAF1A7B296BD68F8B030349D023A234)
Complete name                  : Doctor.Strange.2016.3D.HSBS.BDRip.1080p.mkv
Format                         : Matroska
Format version                 : Version 4 / Version 2
File size                      : 9.06 GiB
Duration                       : 1h 55mn
Overall bit rate               : 11.2 Mbps
Encoded date                   : UTC 2017-02-17 06:22:40
Writing application            : mkvmerge v8.3.0 ('Over the Horizon') 64bit
Writing library                : libebml v1.3.1 + libmatroska v1.4.2
Video
ID                             : 1
Format                         : AVC
Format/Info                    : Advanced Video Codec
Format profile                 : [email protected]
Format settings, CABAC         : Yes
Format settings, ReFrames      : 4 frames
Codec ID                       : V_MPEG4/ISO/AVC
Duration                       : 1h 54mn
Bit rate                       : 9 385 Kbps
Width                          : 1 920 pixels
Height                         : 1 016 pixels
Display aspect ratio           : 1.890
Frame rate mode                : Constant
Frame rate                     : 23.976 fps
Color space                    : YUV
Chroma subsampling             : 4:2:0
Bit depth                      : 8 bits
Scan type                      : Progressive
Bits/(Pixel*Frame)             : 0.201
Stream size                    : 7.53 GiB (83%)
Writing library                : x264 core 148 r2744 b97ae06
Encoding settings              : cabac=1 / ref=4 / deblock=1:0:0 / analyse=0x3:0x133 / me=umh / subme=7 / psy=1 / psy_rd=1.00:0.00 / mixed_ref=1 / me_range=16 / chroma_me=1 / trellis=1 / 8x8dct=1 / cqm=0 / deadzone=21,11 / fast_pskip=0 / chroma_qp_offset=-2 / threads=24 / lookahead_threads=4 / sliced_threads=0 / nr=0 / decimate=1 / interlaced=0 / bluray_compat=0 / constrained_intra=0 / bframes=3 / b_pyramid=2 / b_adapt=1 / b_bias=0 / direct=1 / weightb=1 / open_gop=0 / weightp=2 / keyint=250 / keyint_min=23 / scenecut=40 / intra_refresh=0 / rc_lookahead=40 / rc=2pass / mbtree=1 / bitrate=9385 / ratetol=1.0 / qcomp=0.60 / qpmin=0 / qpmax=69 / qpstep=4 / cplxblur=20.0 / qblur=0.5 / ip_ratio=1.40 / aq=1:1.00
Language                       : English
Default                        : Yes
Forced                         : No
Audio #1
ID                             : 2
Format                         : AC-3
Format/Info                    : Audio Coding 3
Mode extension                 : CM (complete main)
Format settings, Endianness    : Big
Codec ID                       : A_AC3
Duration                       : 1h 55mn
Bit rate mode                  : Constant
Bit rate                       : 384 Kbps
Channel(s)                     : 6 channels
Channel positions              : Front: L C R, Side: L R, LFE
Sampling rate                  : 48.0 KHz
Frame rate                     : 31.250 fps (1536 spf)
Compression mode               : Lossy
Stream size                    : 317 MiB (3%)
Title                          : iTunes
Language                       : Russian
Default                        : Yes
Forced                         : No
Audio #2
ID                             : 3
Format                         : DTS
Format/Info                    : Digital Theater Systems
Mode                           : 16
Format settings, Endianness    : Big
Codec ID                       : A_DTS
Duration                       : 1h 54mn
Bit rate mode                  : Constant
Bit rate                       : 1 509 Kbps
Channel(s)                     : 6 channels
Channel positions              : Front: L C R, Side: L R, LFE
Sampling rate                  : 48.0 KHz
Frame rate                     : 93.750 fps (512 spf)
Bit depth                      : 24 bits
Compression mode               : Lossy
Stream size                    : 1.21 GiB (13%)
Title                          : Original
Language                       : English
Default                        : No
Forced                         : No
Text #1
ID                             : 4
Format                         : UTF-8
Codec ID                       : S_TEXT/UTF8
Codec ID/Info                  : UTF-8 Plain Text
Duration                       : 1h 33mn
Bit rate                       : 0 bps
Count of elements              : 3
Stream size                    : 86.0 Bytes (0%)
Title                          : Forced
Language                       : Russian
Default                        : Yes
Forced                         : No
Text #2
ID                             : 5
Format                         : UTF-8
Codec ID                       : S_TEXT/UTF8
Codec ID/Info                  : UTF-8 Plain Text
Duration                       : 1h 52mn
Bit rate                       : 73 bps
Count of elements              : 1289
Stream size                    : 60.7 KiB (0%)
Title                          : Full-lenth
Language                       : Russian
Default                        : No
Forced                         : No
Text #3
ID                             : 6
Format                         : UTF-8
Codec ID                       : S_TEXT/UTF8
Codec ID/Info                  : UTF-8 Plain Text
Duration                       : 1h 52mn
Bit rate                       : 43 bps
Count of elements              : 1319
Stream size                    : 36.1 KiB (0%)
Title                          : Full
Language                       : English
Default                        : No
Forced                         : No
Text #4
ID                             : 7
Format                         : UTF-8
Codec ID                       : S_TEXT/UTF8
Codec ID/Info                  : UTF-8 Plain Text
Duration                       : 1h 54mn
Bit rate                       : 49 bps
Count of elements              : 1584
Stream size                    : 41.3 KiB (0%)
Title                          : SDH
Language                       : English
Default                        : No
Forced                         : No
Menu
00:00:00.000                   : en:00:00:00.000
00:04:34.566                   : en:00:04:34.566
00:10:16.825                   : en:00:10:16.825
00:18:32.153                   : en:00:18:32.153
00:24:37.017                   : en:00:24:37.017
00:31:40.482                   : en:00:31:40.482
00:38:33.811                   : en:00:38:33.811
00:43:16.135                   : en:00:43:16.135
00:48:24.527                   : en:00:48:24.527
00:55:34.498                   : en:00:55:34.498
01:05:04.359                   : en:01:05:04.359
01:12:38.437                   : en:01:12:38.437
01:22:14.346                   : en:01:22:14.346
01:28:28.637                   : en:01:28:28.637
01:35:00.904                   : en:01:35:00.904
01:45:06.509                   : en:01:45:06.509
Скриншоты:

[Цитировать]



Показать сообщения:    

Текущее время: 18-Окт 10:08

Часовой пояс: UTC + 6


Вы не можете начинать темы
Вы не можете отвечать на сообщения
Вы не можете редактировать свои сообщения
Вы не можете удалять свои сообщения
Вы не можете голосовать в опросах
Вы не можете прикреплять файлы к сообщениям
Вы не можете скачивать файлы

!ВНИМАНИЕ!
Сайт не предоставляет электронные версии произведений, а занимается лишь коллекционированием и каталогизацией ссылок, присылаемых и публикуемых на форуме нашими читателями. Если вы являетесь правообладателем какого-либо представленного материала и не желаете, чтобы ссылка на него находилась в нашем каталоге, свяжитесь с нами, и мы незамедлительно удалим ее. Файлы для обмена на трекере предоставлены пользователями сайта, и администрация не несет ответственности за их содержание. Просьба не заливать файлы, защищенные авторскими правами, а также файлы нелегального содержания!