[ Сегодня идет свободное скачивание без начисления Download ]


Статистика раздачи
Нет
 
   
 
 
 
 
Синдром Титаника / Le syndrome du Titanic Производство: Франция, Mandarin Films, WLP, Studio 37
Жанр: Документальный
Режисер: Жан-Альберт Леврэ
Участники: рассказчик: Николя Халот
Описание:
"Я не был экологом, когда начинал 30 лет тому назад, путешествовать во всем мире. Я увидел как наша планета уменьшилась перед моими глазами, я был беззаботным и убежден в бесконечном и незыблемом мире, в сознании неуязвимого и законченного мира. Но после путешествий всё изменилось... Уже почти 20 лет, я сражаюсь с другими за то чтобы информировать и главным образом мобилизовать всех в отношении угрозы миру. Сегодня, кино является существенной частью, чтобы каждый смог в свою очередь и во Франции и за границей, почувствовать угрозу и разделить мои чувства. Пусть каждый человек, смотрящий этот фильм сможет увидеть Землю и людей, такие, какие они есть и таких как я его увидел. Пусть Человек обнаружит свой собственный масштаб во времени и пространстве. Этот фильм - сигнал тревоги. Давайте не позволим времени продиктовать изменение нашей планеты, а также крик надежды, давайте мобилизуем человеческий талант, чтобы наконец дать смысл достижению." Николя Халот

Продолжительность: 01:37:26
Качество видео: BDRemux
Перевод: Одноголосый дублированный, профессиональный (В.Курдов)
Субтитры: русские
Видео: AVC/H.264, 1920 x 1080, ~15,6 Mbps
Аудио#1: DTS-HD MA, 6 ch, 1509 kbps | Русский
Аудио#2: DTS-HD MA, 6 ch, 1509 kbps | Французский

Mediainfo:

Общее
Уникальный идентификатор : 241830649945875124428761325266978890314 (0xB5EEE396D2E5CB5AB3F745E1947E624A)
Полное имя : F:\КИНО\Le syndrome du Titanic_BDRemux.mkv
Формат : Matroska
Версия формата : Version 4 / Version 2
Размер файла : 12,7 Гбайт
Продолжительность : 1 ч. 37 м.
Режим общего битрейта : Переменный
Общий поток : 18,6 Мбит/сек
Дата кодирования : UTC 2017-08-03 07:13:58
Программа кодирования : mkvmerge v13.0.0 ('The Juggler') 64bit
Библиотека кодирования : libebml v1.3.4 + libmatroska v1.4.5
Видео
Идентификатор : 1
Формат : AVC
Формат/Информация : Advanced Video Codec
Профиль формата : [email protected]
Параметр CABAC формата : Да
Параметр RefFrames формата : 4 кадра
Параметр GOP формата : M=3, N=24
Идентификатор кодека : V_MPEG4/ISO/AVC
Продолжительность : 1 ч. 37 м.
Вид битрейта : Переменный
Битрейт : 15,6 Мбит/сек
Максимальный битрейт : 30,0 Мбит/сек
Ширина : 1920 пикселей
Высота : 1080 пикселей
Соотношение сторон : 16:9
Режим частоты кадров : Постоянный
Частота кадров : 23,976 (24000/1001) кадра/сек
Стандарт вещания : NTSC
Цветовое пространство : YUV
Субдискретизация насыщенности : 4:2:0
Битовая глубина : 8 бит
Тип развёртки : Прогрессивная
Бит/(Пиксели*Кадры) : 0.313
Размер потока : 10,6 Гбайт (84%)
Язык : English
Default : Да
Forced : Нет
Цветовой диапазон : Limited
Основные цвета : BT.709
Характеристики трансфера : BT.709
Коэффициенты матрицы : BT.709
Аудио #1
Идентификатор : 2
Формат : DTS
Формат/Информация : Digital Theater Systems
Режим : 16
Параметр Endianness формата : Big
Идентификатор кодека : A_DTS
Продолжительность : 1 ч. 37 м.
Вид битрейта : Постоянный
Битрейт : 1509 Кбит/сек
Каналы : 6 каналов
Расположение каналов : Front: L C R, Side: L R, LFE
Частота : 48,0 КГц
Частота кадров : 93,750 кадра/сек (512 SPF)
Битовая глубина : 16 бит
Метод сжатия : С потерями
Размер потока : 1,03 Гбайт (8%)
Заголовок : Surround 5.1
Язык : Russian
Default : Да
Forced : Нет
Аудио #2
Идентификатор : 3
Формат : DTS
Формат/Информация : Digital Theater Systems
Режим : 16
Параметр Endianness формата : Big
Идентификатор кодека : A_DTS
Продолжительность : 1 ч. 37 м.
Вид битрейта : Постоянный
Битрейт : 1509 Кбит/сек
Каналы : 6 каналов
Расположение каналов : Front: L C R, Side: L R, LFE
Частота : 48,0 КГц
Частота кадров : 93,750 кадра/сек (512 SPF)
Битовая глубина : 16 бит
Метод сжатия : С потерями
Размер потока : 1,03 Гбайт (8%)
Заголовок : Surround 5.1
Язык : French
Default : Нет
Forced : Нет
Текст
Идентификатор : 4
Формат : PGS
Идентификатор кодека : S_HDMV/PGS
Идентификатор кодека/Информация : Picture based subtitle format used on BDs/HD-DVDs
Продолжительность : 1 ч. 31 м.
Битрейт : 9330 бит/сек
ElementCount : 407
Размер потока : 6,09 Мбайт (0%)
Язык : Russian
Default : Нет
Forced : Нет

Скриншоты:


[Цитировать]



Показать сообщения:    

Текущее время: 19-Окт 05:29

Часовой пояс: UTC + 6


Вы не можете начинать темы
Вы не можете отвечать на сообщения
Вы не можете редактировать свои сообщения
Вы не можете удалять свои сообщения
Вы не можете голосовать в опросах
Вы не можете прикреплять файлы к сообщениям
Вы не можете скачивать файлы

!ВНИМАНИЕ!
Сайт не предоставляет электронные версии произведений, а занимается лишь коллекционированием и каталогизацией ссылок, присылаемых и публикуемых на форуме нашими читателями. Если вы являетесь правообладателем какого-либо представленного материала и не желаете, чтобы ссылка на него находилась в нашем каталоге, свяжитесь с нами, и мы незамедлительно удалим ее. Файлы для обмена на трекере предоставлены пользователями сайта, и администрация не несет ответственности за их содержание. Просьба не заливать файлы, защищенные авторскими правами, а также файлы нелегального содержания!