[ Сегодня идет свободное скачивание без начисления Download ]


 
 
 
Сборник мультфильмов
Фильмы Юрия Норштейна
(1968-1979)
- Информация о фильме
Оригинальное название: Фильмы Юрия Норштейна
Год выпуска: 1968-1979
Жанр: Мультфильм
Выпущено: СССР, Союзмультфильм
Режиссер: Юрий Норштейн, Иван Иванов-Вано, Ирина Марголина
В ролях: Александр Калягин, Виктор Хохряков, Иннокентий Смоктуновский, Алексей Баталов, Мария Виноградова, Вячеслав Невинный ст.
О фильме:
Творчество Юрия Норштейна, имя которого известно всему миру, интересно и взрослым, и детям. Для детей его мультфильмы - это ожившая сказка, для взрослых - оригинальное искусство. Его фильмы пронизаны поэзией, красотой, самобытным видением мира. Им присуща неповторимая своеобразная авторская интонация. Пересказывать их столь же бессмысленно, как пытаться пересказывать стихи, музыку...
Файл:
Качество: BDRemux 1080p
Видео: MPEG-4 AVC, 37494 Kбит/с, 1920x1080, 23.976 кадр/с
Аудио: Русский (AC3, 2 ch, 640 Кбит/с), (DTS-HD MA, 2 ch, 2056 Кбит/с)
Размер: 22.94 ГБ
Продолжительность: 01:21:41
Язык: Русский
Субтитры: Английские
К сожалению, Blu-Ray пришлось резать, так как издатели выпустили мультфильмы одним файлом, в связи с этим оригинальные чаптеры не были сохранены, на Blu-Ray шаг чаптерево был равен одному мультфильму.
Для совместимости с большинством проигрывающими устройствами исходный LPCM был пересобран в DTS-HD MA, без потери качества.

Содержание

Название: 25-е – первый день
Год выхода: 1968
Жанр: мультфильм, короткометражка
Режиссер: Юрий Норштейн, Аркадий Тюрин
О фильме: Фильм-плакат к 60-летию Октябрьской революции.

Название: Сеча при Керженце
Год выхода: 1971
Жанр: мультфильм, короткометражка, военный
Режиссер: Иван Иванов-Вано, Юрий Норштейн
О фильме: Сеча при Керженце — мультипликационный фильм по мотивам легеды и симфонической поэмы Римского-Корсакова о невидимом граде Китеже, который ушел под воды озера, чтобы избежать татарского нашествия.

Название: Лиса и Заяц
Год выхода: 1973
Жанр: мультфильм, короткометражка, семейный
Режиссер: Юрий Норштейн
В ролях: Виктор Хохряков
О фильме: Мультипликационный фильм по русской народной сказке в пересказе Владимира Даля.

Название: Цапля и журавль
Год выхода: 1974
Жанр: мультфильм, короткометражка
Режиссер: Юрий Норштейн
В ролях: Иннокентий Смоктуновский
О фильме: Журавль и цапля хотят пожениться, но присущие обоим перепады настроения и болезненное самолюбие никак не дают им быть вместе. Он предлагает — она отказывается, она раскаялась — он уже передумал. Так и ходят друг за другом.

Название: Ежик в тумане
Год выхода: 1975
Жанр: мультфильм, короткометражка, фэнтези, драма, детектив, семейный
Режиссер: Юрий Норштейн
В ролях: Вячеслав Невинный, Мария Виноградова, Алексей Баталов
О фильме: По вечерам Ёжик ходил к Медвежонку в гости считать звёзды. Они усаживались на брёвнышке и, прихлёбывая чай, смотрели на звездное небо. Оно висело над крышей, прямо за печной трубой. Справа от трубы были звёзды Медвежонка, а слева — Ёжика.

Название: Сказка сказок
Год выхода: 1979
Жанр: мультфильм, короткометражка
Режиссер: Юрий Норштейн
В ролях: Александр Калягин
О фильме: Фильм о памяти, постоянно возвращающей автора к теме войны. Использованы произведения Баха и Моцарта, а также популярные мелодии 30-х годов.

Инфо-файл

Общее
Уникальный идентификатор : 248365031979634721610007887127374308359 (0xBAD95D7F3E428E84BC2D69358059A407)
Полное имя : D:ЗагрузкиThe.Short.Films.Of.Yuri.Norstein.1068-1979.BDRemux.(1080p).OlLanDGroup25e.Pervij.Den.1968.BDRemux.(1080p).OlLanDGroup.mkv
Формат : Matroska
Версия формата : Version 2
Размер файла : 2,59 Гбайт
Продолжительность : 9 м. 25 с.
Режим общего битрейта : Переменный
Общий поток : 39,3 Мбит/сек
Название фильма : 25-е, первый день.1968.Сборка: ollan
Дата кодирования : UTC 2017-10-17 20:37:03
Программа кодирования : mkvmerge v5.6.0 ('Kenya Kane') built on May 27 2012 16:44:04
Библиотека кодирования : libebml v1.2.3 + libmatroska v1.3.0
Attachements : Cover - 25e.Pervij.Den.png
Видео
Идентификатор : 1
Формат : AVC
Формат/Информация : Advanced Video Codec
Профиль формата : [email protected]
Параметр CABAC формата : Да
Параметр ReFrames формата : 2 кадра
Идентификатор кодека : V_MPEG4/ISO/AVC
Продолжительность : 9 м. 25 с.
Вид битрейта : Переменный
Максимальный битрейт : 40,0 Мбит/сек
Ширина : 1920 пикселей
Высота : 1080 пикселей
Соотношение сторон : 16:9
Режим частоты кадров : Постоянный
Частота кадров : 23,976 (24000/1001) кадра/сек
Цветовое пространство : YUV
Субдискретизация насыщенности : 4:2:0
Битовая глубина : 8 бит
Тип развёртки : Прогрессивная
Язык : Russian
Default : Да
Forced : Нет
Аудио #1
Идентификатор : 2
Формат : AC-3
Формат/Информация : Audio Coding 3
Расширение режима : CM (complete main)
Параметр Endianness формата : Big
Идентификатор кодека : A_AC3
Продолжительность : 9 м. 25 с.
Вид битрейта : Постоянный
Битрейт : 640 Кбит/сек
Каналы : 2 канала
Расположение каналов : Front: L R
Частота : 48,0 КГц
Частота кадров : 31,250 кадров/сек (1536 spf)
Метод сжатия : С потерями
Размер потока : 43,2 Мбайт (2%)
Язык : Russian
Default : Да
Forced : Нет
Аудио #2
Идентификатор : 3
Формат : DTS
Формат/Информация : Digital Theater Systems
Профиль формата : MA / Core
Режим : 16
Параметр Endianness формата : Big
Идентификатор кодека : A_DTS
Продолжительность : 9 м. 25 с.
Вид битрейта : Переменный / Постоянный
Битрейт : Неизвестно / 1509 Кбит/сек
Каналы : 2 канала
Расположение каналов : Front: L R
Частота : 48,0 КГц
Частота кадров : 93,750 кадра/сек (512 spf)
Битовая глубина : 24 бит
Метод сжатия : Без потерь / Lossy
Язык : Russian
Default : Нет
Forced : Нет
Текст
Идентификатор : 4
Формат : UTF-8
Идентификатор кодека : S_TEXT/UTF8
Идентификатор кодека/Информация : UTF-8 Plain Text
Заголовок : Full
Язык : English
Default : Нет
Forced : Нет
Общее
Уникальный идентификатор : 227979480618085596373326106427588930909 (0xAB8340373C3524DAA2343C13259CED5D)
Полное имя : D:ЗагрузкиThe.Short.Films.Of.Yuri.Norstein.1068-1979.BDRemux.(1080p).OlLanDGroupCaplja.I.Žuravl.1974.BDRemux.(1080p).OlLanDGroup.mkv
Формат : Matroska
Версия формата : Version 2
Размер файла : 2,93 Гбайт
Продолжительность : 10 м.
Режим общего битрейта : Переменный
Общий поток : 41,0 Мбит/сек
Название фильма : Цапля и журавль.1974.
Дата кодирования : UTC 2017-10-18 19:32:29
Программа кодирования : mkvmerge v5.6.0 ('Kenya Kane') built on May 27 2012 16:44:04
Библиотека кодирования : libebml v1.2.3 + libmatroska v1.3.0
Attachements : Cover - Caplja.I.Žuravl.png
Видео
Идентификатор : 1
Формат : AVC
Формат/Информация : Advanced Video Codec
Профиль формата : [email protected]
Параметр CABAC формата : Да
Параметр ReFrames формата : 2 кадра
Идентификатор кодека : V_MPEG4/ISO/AVC
Продолжительность : 10 м.
Вид битрейта : Переменный
Максимальный битрейт : 40,0 Мбит/сек
Ширина : 1920 пикселей
Высота : 1080 пикселей
Соотношение сторон : 16:9
Режим частоты кадров : Постоянный
Частота кадров : 23,976 (24000/1001) кадра/сек
Цветовое пространство : YUV
Субдискретизация насыщенности : 4:2:0
Битовая глубина : 8 бит
Тип развёртки : Прогрессивная
Язык : Russian
Default : Да
Forced : Нет
Аудио #1
Идентификатор : 2
Формат : AC-3
Формат/Информация : Audio Coding 3
Расширение режима : CM (complete main)
Параметр Endianness формата : Big
Идентификатор кодека : A_AC3
Продолжительность : 10 м.
Вид битрейта : Постоянный
Битрейт : 640 Кбит/сек
Каналы : 2 канала
Расположение каналов : Front: L R
Частота : 48,0 КГц
Частота кадров : 31,250 кадров/сек (1536 spf)
Метод сжатия : С потерями
Задержка видео : 2 мс.
Размер потока : 46,9 Мбайт (2%)
Язык : Russian
Default : Да
Forced : Нет
Аудио #2
Идентификатор : 3
Формат : DTS
Формат/Информация : Digital Theater Systems
Профиль формата : MA / Core
Режим : 16
Параметр Endianness формата : Big
Идентификатор кодека : A_DTS
Продолжительность : 10 м.
Вид битрейта : Переменный / Постоянный
Битрейт : Неизвестно / 1509 Кбит/сек
Каналы : 2 канала
Расположение каналов : Front: L R
Частота : 48,0 КГц
Частота кадров : 93,750 кадра/сек (512 spf)
Битовая глубина : 24 бит
Метод сжатия : Без потерь / Lossy
Задержка видео : 2 мс.
Язык : Russian
Default : Нет
Forced : Нет
Текст
Идентификатор : 4
Формат : UTF-8
Идентификатор кодека : S_TEXT/UTF8
Идентификатор кодека/Информация : UTF-8 Plain Text
Заголовок : Full
Язык : English
Default : Нет
Forced : Нет
Общее
Уникальный идентификатор : 215544526568637506583693294964078060689 (0xA2285DA58289EBCAB0D5F5C0D46CA491)
Полное имя : D:ЗагрузкиThe.Short.Films.Of.Yuri.Norstein.1068-1979.BDRemux.(1080p).OlLanDGroupLisa.I.Zajac.1973.BDRemux.(1080p).OlLanDGroup.mkv
Формат : Matroska
Версия формата : Version 2
Размер файла : 3,50 Гбайт
Продолжительность : 12 м.
Режим общего битрейта : Переменный
Общий поток : 40,8 Мбит/сек
Название фильма : Лиса и заяц.1973.Cборка: ollan
Дата кодирования : UTC 2017-10-18 19:27:38
Программа кодирования : mkvmerge v5.6.0 ('Kenya Kane') built on May 27 2012 16:44:04
Библиотека кодирования : libebml v1.2.3 + libmatroska v1.3.0
Attachements : Cover - Lisa.I.Zajac.png
Видео
Идентификатор : 1
Формат : AVC
Формат/Информация : Advanced Video Codec
Профиль формата : [email protected]
Параметр CABAC формата : Да
Параметр ReFrames формата : 2 кадра
Идентификатор кодека : V_MPEG4/ISO/AVC
Продолжительность : 12 м.
Вид битрейта : Переменный
Максимальный битрейт : 40,0 Мбит/сек
Ширина : 1920 пикселей
Высота : 1080 пикселей
Соотношение сторон : 16:9
Режим частоты кадров : Постоянный
Частота кадров : 23,976 (24000/1001) кадра/сек
Цветовое пространство : YUV
Субдискретизация насыщенности : 4:2:0
Битовая глубина : 8 бит
Тип развёртки : Прогрессивная
Язык : Russian
Default : Да
Forced : Нет
Аудио #1
Идентификатор : 2
Формат : AC-3
Формат/Информация : Audio Coding 3
Расширение режима : CM (complete main)
Параметр Endianness формата : Big
Идентификатор кодека : A_AC3
Продолжительность : 12 м.
Вид битрейта : Постоянный
Битрейт : 640 Кбит/сек
Каналы : 2 канала
Расположение каналов : Front: L R
Частота : 48,0 КГц
Частота кадров : 31,250 кадров/сек (1536 spf)
Метод сжатия : С потерями
Задержка видео : 6 мс.
Размер потока : 56,1 Мбайт (2%)
Язык : Russian
Default : Да
Forced : Нет
Аудио #2
Идентификатор : 3
Формат : DTS
Формат/Информация : Digital Theater Systems
Профиль формата : MA / Core
Режим : 16
Параметр Endianness формата : Big
Идентификатор кодека : A_DTS
Продолжительность : 12 м.
Вид битрейта : Переменный / Постоянный
Битрейт : Неизвестно / 1509 Кбит/сек
Каналы : 2 канала
Расположение каналов : Front: L R
Частота : 48,0 КГц
Частота кадров : 93,750 кадра/сек (512 spf)
Битовая глубина : 24 бит
Метод сжатия : Без потерь / Lossy
Задержка видео : 6 мс.
Язык : Russian
Default : Нет
Forced : Нет
Текст
Идентификатор : 4
Формат : UTF-8
Идентификатор кодека : S_TEXT/UTF8
Идентификатор кодека/Информация : UTF-8 Plain Text
Заголовок : Full
Язык : English
Default : Нет
Forced : Нет
Общее
Уникальный идентификатор : 240231652396733257905607579114347246105 (0xB4BAEEEC5BDBD5D1AC1F3AF95FC13219)
Полное имя : D:ЗагрузкиThe.Short.Films.Of.Yuri.Norstein.1068-1979.BDRemux.(1080p).OlLanDGroupSecha.Pri.Keržence.1968.BDRemux.(1080p).OlLanDGroup.mkv
Формат : Matroska
Версия формата : Version 2
Размер файла : 2,74 Гбайт
Продолжительность : 10 м.
Режим общего битрейта : Переменный
Общий поток : 38,5 Мбит/сек
Название фильма : Сеча при Керженце.1968.Сборка: ollan
Дата кодирования : UTC 2017-10-17 20:41:46
Программа кодирования : mkvmerge v5.6.0 ('Kenya Kane') built on May 27 2012 16:44:04
Библиотека кодирования : libebml v1.2.3 + libmatroska v1.3.0
Attachements : Cover - Secha.Pri.Keržence.png
Видео
Идентификатор : 1
Формат : AVC
Формат/Информация : Advanced Video Codec
Профиль формата : [email protected]
Параметр CABAC формата : Да
Параметр ReFrames формата : 2 кадра
Параметр GOP формата : M=3, N=24
Идентификатор кодека : V_MPEG4/ISO/AVC
Продолжительность : 10 м.
Вид битрейта : Переменный
Максимальный битрейт : 40,0 Мбит/сек
Ширина : 1920 пикселей
Высота : 1080 пикселей
Соотношение сторон : 16:9
Режим частоты кадров : Постоянный
Частота кадров : 23,976 (24000/1001) кадра/сек
Цветовое пространство : YUV
Субдискретизация насыщенности : 4:2:0
Битовая глубина : 8 бит
Тип развёртки : Прогрессивная
Язык : Russian
Default : Да
Forced : Нет
Аудио #1
Идентификатор : 2
Формат : AC-3
Формат/Информация : Audio Coding 3
Расширение режима : CM (complete main)
Параметр Endianness формата : Big
Идентификатор кодека : A_AC3
Продолжительность : 10 м.
Вид битрейта : Постоянный
Битрейт : 640 Кбит/сек
Каналы : 2 канала
Расположение каналов : Front: L R
Частота : 48,0 КГц
Частота кадров : 31,250 кадров/сек (1536 spf)
Метод сжатия : С потерями
Задержка видео : 2 мс.
Размер потока : 46,7 Мбайт (2%)
Язык : Russian
Default : Да
Forced : Нет
Аудио #2
Идентификатор : 3
Формат : DTS
Формат/Информация : Digital Theater Systems
Профиль формата : MA / Core
Режим : 16
Параметр Endianness формата : Big
Идентификатор кодека : A_DTS
Продолжительность : 10 м.
Вид битрейта : Переменный / Постоянный
Битрейт : Неизвестно / 1509 Кбит/сек
Каналы : 2 канала
Расположение каналов : Front: L R
Частота : 48,0 КГц
Частота кадров : 93,750 кадра/сек (512 spf)
Битовая глубина : 24 бит
Метод сжатия : Без потерь / Lossy
Задержка видео : 2 мс.
Язык : Russian
Default : Нет
Forced : Нет
Текст
Идентификатор : 4
Формат : UTF-8
Идентификатор кодека : S_TEXT/UTF8
Идентификатор кодека/Информация : UTF-8 Plain Text
Заголовок : Full
Язык : English
Default : Нет
Forced : Нет
Общее
Уникальный идентификатор : 217695852829019269643487391315910296752 (0xA3C6B23868B1EC118AD2552B64BD84B0)
Полное имя : D:ЗагрузкиThe.Short.Films.Of.Yuri.Norstein.1068-1979.BDRemux.(1080p).OlLanDGroupSkazka.Skazok.1979.BDRemux.(1080p).OlLanDGroup.mkv
Формат : Matroska
Версия формата : Version 2
Размер файла : 8,32 Гбайт
Продолжительность : 29 м.
Режим общего битрейта : Переменный
Общий поток : 40,9 Мбит/сек
Название фильма : Сказка сказок.1979.Cборка: ollan
Дата кодирования : UTC 2017-10-19 16:30:31
Программа кодирования : mkvmerge v5.6.0 ('Kenya Kane') built on May 27 2012 16:44:04
Библиотека кодирования : libebml v1.2.3 + libmatroska v1.3.0
Attachements : Cover - Skazka.Skazok.png
Видео
Идентификатор : 1
Формат : AVC
Формат/Информация : Advanced Video Codec
Профиль формата : [email protected]
Параметр CABAC формата : Да
Параметр ReFrames формата : 2 кадра
Идентификатор кодека : V_MPEG4/ISO/AVC
Продолжительность : 29 м.
Вид битрейта : Переменный
Максимальный битрейт : 40,0 Мбит/сек
Ширина : 1920 пикселей
Высота : 1080 пикселей
Соотношение сторон : 16:9
Режим частоты кадров : Постоянный
Частота кадров : 23,976 (24000/1001) кадра/сек
Цветовое пространство : YUV
Субдискретизация насыщенности : 4:2:0
Битовая глубина : 8 бит
Тип развёртки : Прогрессивная
Язык : Russian
Default : Да
Forced : Нет
Аудио #1
Идентификатор : 2
Формат : AC-3
Формат/Информация : Audio Coding 3
Расширение режима : CM (complete main)
Параметр Endianness формата : Big
Идентификатор кодека : A_AC3
Продолжительность : 29 м.
Вид битрейта : Постоянный
Битрейт : 640 Кбит/сек
Каналы : 2 канала
Расположение каналов : Front: L R
Частота : 48,0 КГц
Частота кадров : 31,250 кадров/сек (1536 spf)
Метод сжатия : С потерями
Задержка видео : 6 мс.
Размер потока : 133 Мбайт (2%)
Язык : Russian
Default : Да
Forced : Нет
Аудио #2
Идентификатор : 3
Формат : DTS
Формат/Информация : Digital Theater Systems
Профиль формата : MA / Core
Режим : 16
Параметр Endianness формата : Big
Идентификатор кодека : A_DTS
Продолжительность : 29 м.
Вид битрейта : Переменный / Постоянный
Битрейт : Неизвестно / 1509 Кбит/сек
Каналы : 2 канала
Расположение каналов : Front: L R
Частота : 48,0 КГц
Частота кадров : 93,750 кадра/сек (512 spf)
Битовая глубина : 24 бит
Метод сжатия : Без потерь / Lossy
Задержка видео : 6 мс.
Язык : Russian
Default : Нет
Forced : Нет
Текст
Идентификатор : 4
Формат : UTF-8
Идентификатор кодека : S_TEXT/UTF8
Идентификатор кодека/Информация : UTF-8 Plain Text
Заголовок : Full
Язык : English
Default : Нет
Forced : Нет
Общее
Уникальный идентификатор : 224164679411319189657156264478660642904 (0xA8A48BFEB4301416AE611E78F0584858)
Полное имя : D:ЗагрузкиThe.Short.Films.Of.Yuri.Norstein.1068-1979.BDRemux.(1080p).OlLanDGroupYožik.V.Tumane.1975.BDRemux.(1080p).OlLanDGroup.mkv
Формат : Matroska
Версия формата : Version 2
Размер файла : 2,86 Гбайт
Продолжительность : 10 м.
Режим общего битрейта : Переменный
Общий поток : 39,2 Мбит/сек
Название фильма : Ёжик в тумане.1975.Cборка: ollan
Дата кодирования : UTC 2017-10-18 19:38:06
Программа кодирования : mkvmerge v5.6.0 ('Kenya Kane') built on May 27 2012 16:44:04
Библиотека кодирования : libebml v1.2.3 + libmatroska v1.3.0
Attachements : Cover - Yožik.V.Tumane.png
Видео
Идентификатор : 1
Формат : AVC
Формат/Информация : Advanced Video Codec
Профиль формата : [email protected]
Параметр CABAC формата : Да
Параметр ReFrames формата : 2 кадра
Идентификатор кодека : V_MPEG4/ISO/AVC
Продолжительность : 10 м.
Вид битрейта : Переменный
Максимальный битрейт : 40,0 Мбит/сек
Ширина : 1920 пикселей
Высота : 1080 пикселей
Соотношение сторон : 16:9
Режим частоты кадров : Постоянный
Частота кадров : 23,976 (24000/1001) кадра/сек
Цветовое пространство : YUV
Субдискретизация насыщенности : 4:2:0
Битовая глубина : 8 бит
Тип развёртки : Прогрессивная
Язык : Russian
Default : Да
Forced : Нет
Аудио #1
Идентификатор : 2
Формат : AC-3
Формат/Информация : Audio Coding 3
Расширение режима : CM (complete main)
Параметр Endianness формата : Big
Идентификатор кодека : A_AC3
Продолжительность : 10 м.
Вид битрейта : Постоянный
Битрейт : 640 Кбит/сек
Каналы : 2 канала
Расположение каналов : Front: L R
Частота : 48,0 КГц
Частота кадров : 31,250 кадров/сек (1536 spf)
Метод сжатия : С потерями
Задержка видео : 22 мс.
Размер потока : 47,8 Мбайт (2%)
Язык : Russian
Default : Да
Forced : Нет
Аудио #2
Идентификатор : 3
Формат : DTS
Формат/Информация : Digital Theater Systems
Профиль формата : MA / Core
Режим : 16
Параметр Endianness формата : Big
Идентификатор кодека : A_DTS
Продолжительность : 10 м.
Вид битрейта : Переменный / Постоянный
Битрейт : Неизвестно / 1509 Кбит/сек
Каналы : 2 канала
Расположение каналов : Front: L R
Частота : 48,0 КГц
Частота кадров : 93,750 кадра/сек (512 spf)
Битовая глубина : 24 бит
Метод сжатия : Без потерь / Lossy
Задержка видео : 1 мс.
Язык : Russian
Default : Нет
Forced : Нет
Текст
Идентификатор : 4
Формат : UTF-8
Идентификатор кодека : S_TEXT/UTF8
Идентификатор кодека/Информация : UTF-8 Plain Text
Язык : English
Default : Нет
Forced : Нет

Скриншоты



Дополнительная информация

От: Сборка:

[Цитировать]



Показать сообщения:    

Текущее время: 18-Окт 10:07

Часовой пояс: UTC + 6


Вы не можете начинать темы
Вы не можете отвечать на сообщения
Вы не можете редактировать свои сообщения
Вы не можете удалять свои сообщения
Вы не можете голосовать в опросах
Вы не можете прикреплять файлы к сообщениям
Вы не можете скачивать файлы

!ВНИМАНИЕ!
Сайт не предоставляет электронные версии произведений, а занимается лишь коллекционированием и каталогизацией ссылок, присылаемых и публикуемых на форуме нашими читателями. Если вы являетесь правообладателем какого-либо представленного материала и не желаете, чтобы ссылка на него находилась в нашем каталоге, свяжитесь с нами, и мы незамедлительно удалим ее. Файлы для обмена на трекере предоставлены пользователями сайта, и администрация не несет ответственности за их содержание. Просьба не заливать файлы, защищенные авторскими правами, а также файлы нелегального содержания!